<?xml version="1.0" standalone="no"?>
<!DOCTYPE svg PUBLIC "-//W3C//DTD SVG 1.1//EN" "http://www.w3.org/Graphics/SVG/1.1/DTD/svg11.dtd" >
<svg xmlns="http://www.w3.org/2000/svg" xmlns:xlink="http://www.w3.org/1999/xlink" version="1.1">
<metadata>
Created by FontForge 20200314 at Tue Jul 14 03:54:09 2020
 By INNAGP01
Font Awesome
</metadata>
<defs>
<font id="FontAwesome5ProRegular" horiz-adv-x="512" >
  <font-face 
    font-family="Font Awesome 5 Pro"
    font-weight="400"
    font-stretch="normal"
    units-per-em="512"
    panose-1="2 0 5 3 0 0 0 0 0 0"
    ascent="448"
    descent="-64"
    bbox="-0.516129 -64.5135 640.5 448.29"
    underline-thickness="0"
    underline-position="5"
    unicode-range="U+F002-F7D9"
  />
<missing-glyph horiz-adv-x="0" 
 />
    <glyph glyph-name=".notdef" horiz-adv-x="0" 
 />
    <glyph glyph-name=".null" horiz-adv-x="0" 
 />
    <glyph glyph-name="nonmarkingreturn" horiz-adv-x="170" 
 />
    <glyph glyph-name="search" unicode="&#xf002;" 
d="M509 -21l-122 122q-3 3 -8 3h-14q24 28 37.5 63t13.5 73q0 57 -28 104.5t-75.5 75.5t-104.5 28t-104.5 -28t-75.5 -75.5t-28 -104.5t28 -104.5t75.5 -75.5t104.5 -28q38 0 73 13.5t63 37.5v-14q0 -4 3 -8l122 -121q3 -4 8 -4t9 4l23 22q3 4 3 9t-3 8zM208 80
q-43 0 -80 21.5t-58.5 58.5t-21.5 80t21.5 80t58.5 58.5t80 21.5t80 -21.5t58.5 -58.5t21.5 -80t-21.5 -80t-58.5 -58.5t-80 -21.5z" />
    <glyph glyph-name="heart" unicode="&#xf004;" 
d="M458 384q-28 24 -65 30t-73.5 -6t-63.5 -39q-27 27 -63.5 39t-73.5 6t-65 -30q-36 -31 -48 -74q-12 -39 -1 -79.5t38 -68.5l175 -178q16 -16 38 -16t38 16l175 178q27 28 38 68.5t0 79.5q-13 43 -49 74zM435 196l-176 -178q-3 -4 -6 0l-176 178q-18 19 -25.5 46.5
t0.5 54.5q8 29 33 50q29 24 68.5 21t67.5 -32l35 -35l35 35q28 29 67.5 32t68.5 -21q25 -21 33 -50q8 -27 0.5 -54.5t-25.5 -46.5z" />
    <glyph glyph-name="star" unicode="&#xf005;" horiz-adv-x="576" 
d="M528 277l-146 21l-65 132q-6 12 -17.5 16t-23 0t-17.5 -16l-65 -132l-146 -21q-13 -2 -20.5 -12t-7 -22t9.5 -21l106 -103l-25 -146q-2 -12 4.5 -22.5t18.5 -13.5t23 3l131 68l131 -68q11 -6 23 -3t18.5 13.5t4.5 22.5l-25 146l106 103q9 9 9.5 21t-7 22t-20.5 12z
M389 136l23 -139l-124 66l-124 -66l23 139l-100 98l139 20l62 126l62 -126l139 -20z" />
    <glyph glyph-name="user" unicode="&#xf007;" horiz-adv-x="448" 
d="M314 144q-13 0 -34 -7q-14 -4 -23 -6q-15 -3 -33 -3t-33 3q-9 2 -23 6q-21 7 -34 7q-36 0 -67 -18t-49 -49t-18 -67v-26q0 -20 14 -34t34 -14h352q20 0 34 14t14 34v26q0 36 -18 67t-49 49t-67 18zM400 -16h-352v26q0 35 25.5 60.5t60.5 25.5q5 0 20 -4q37 -12 70.5 -12
t69.5 12q14 4 20 4q35 0 60.5 -25.5t25.5 -60.5v-26zM224 160q39 0 72 19.5t52.5 52.5t19.5 72t-19.5 72t-52.5 52.5t-72 19.5t-72 -19.5t-52.5 -52.5t-19.5 -72t19.5 -72t52.5 -52.5t72 -19.5zM224 400q40 0 68 -28t28 -68t-28 -68t-68 -28t-68 28t-28 68t28 68t68 28z" />
    <glyph glyph-name="search-plus" unicode="&#xf00e;" 
d="M312 252v-24q0 -5 -3.5 -8.5t-8.5 -3.5h-68v-68q0 -5 -3.5 -8.5t-8.5 -3.5h-24q-5 0 -8.5 3.5t-3.5 8.5v68h-68q-5 0 -8.5 3.5t-3.5 8.5v24q0 5 3.5 8.5t8.5 3.5h68v68q0 5 3.5 8.5t8.5 3.5h24q5 0 8.5 -3.5t3.5 -8.5v-68h68q5 0 8.5 -3.5t3.5 -8.5zM509 -38l-23 -22
q-4 -4 -9 -4t-8 4l-121 121q-4 3 -4 8v14q-28 -24 -63 -37.5t-73 -13.5q-57 0 -104.5 28t-75.5 75.5t-28 104.5t28 104.5t75.5 75.5t104.5 28t104.5 -28t75.5 -75.5t28 -104.5q0 -38 -13.5 -73t-37.5 -63h14q4 0 8 -4l122 -121q3 -3 3 -8t-3 -9zM368 240q0 43 -21.5 80
t-58.5 58.5t-80 21.5t-80 -21.5t-58.5 -58.5t-21.5 -80t21.5 -80t58.5 -58.5t80 -21.5t80 21.5t58.5 58.5t21.5 80z" />
    <glyph glyph-name="search-minus" unicode="&#xf010;" 
d="M312 252v-24q0 -5 -3.5 -8.5t-8.5 -3.5h-184q-5 0 -8.5 3.5t-3.5 8.5v24q0 5 3.5 8.5t8.5 3.5h184q5 0 8.5 -3.5t3.5 -8.5zM509 -38l-23 -22q-4 -4 -9 -4t-8 4l-121 121q-4 3 -4 8v14q-28 -24 -63 -37.5t-73 -13.5q-57 0 -104.5 28t-75.5 75.5t-28 104.5t28 104.5
t75.5 75.5t104.5 28t104.5 -28t75.5 -75.5t28 -104.5q0 -38 -13.5 -73t-37.5 -63h14q4 0 8 -4l122 -121q3 -3 3 -8t-3 -9zM368 240q0 43 -21.5 80t-58.5 58.5t-80 21.5t-80 -21.5t-58.5 -58.5t-21.5 -80t21.5 -80t58.5 -58.5t80 -21.5t80 21.5t58.5 58.5t21.5 80z" />
    <glyph glyph-name="power-off" unicode="&#xf011;" 
d="M389 402q53 -34 84 -89.5t31 -120.5q0 -67 -33.5 -124t-90 -90.5t-124 -33.5t-124.5 33.5t-90.5 90t-33.5 123t31 122t84 89.5q5 2 10 1t7 -5l12 -21q3 -5 1.5 -9.5t-5.5 -6.5q-42 -28 -67 -72.5t-25 -97.5t27 -99t73 -73t100 -27t100 27t73 73t27 99t-25 97.5t-67 72.5
q-4 2 -5.5 6.5t1.5 9.5l12 20q2 5 7 6t10 -1zM280 172v264q0 5 -3.5 8.5t-8.5 3.5h-24q-5 0 -8.5 -3.5t-3.5 -8.5v-264q0 -5 3.5 -8.5t8.5 -3.5h24q5 0 8.5 3.5t3.5 8.5z" />
    <glyph glyph-name="signal" unicode="&#xf012;" horiz-adv-x="640" 
d="M208 160h-32q-7 0 -11.5 -4.5t-4.5 -11.5v-192q0 -7 4.5 -11.5t11.5 -4.5h32q7 0 11.5 4.5t4.5 11.5v192q0 7 -4.5 11.5t-11.5 4.5zM80 64h-32q-7 0 -11.5 -4.5t-4.5 -11.5v-96q0 -7 4.5 -11.5t11.5 -4.5h32q7 0 11.5 4.5t4.5 11.5v96q0 7 -4.5 11.5t-11.5 4.5zM336 256
h-32q-7 0 -11.5 -4.5t-4.5 -11.5v-288q0 -7 4.5 -11.5t11.5 -4.5h32q7 0 11.5 4.5t4.5 11.5v288q0 7 -4.5 11.5t-11.5 4.5zM464 352h-32q-7 0 -11.5 -4.5t-4.5 -11.5v-384q0 -7 4.5 -11.5t11.5 -4.5h32q7 0 11.5 4.5t4.5 11.5v384q0 7 -4.5 11.5t-11.5 4.5zM592 448h-32
q-7 0 -11.5 -4.5t-4.5 -11.5v-480q0 -7 4.5 -11.5t11.5 -4.5h32q7 0 11.5 4.5t4.5 11.5v480q0 7 -4.5 11.5t-11.5 4.5z" />
    <glyph glyph-name="cog" unicode="&#xf013;" 
d="M453 211l31 18q7 4 10.5 12t1.5 15q-18 64 -65 111q-5 6 -13 7t-16 -3l-31 -18q-16 11 -33 19v36q0 9 -5 15.5t-13 8.5q-64 17 -128 0q-8 -2 -13 -8.5t-5 -15.5v-36q-17 -8 -33 -19l-31 18q-8 4 -16 3t-13 -7q-47 -47 -65 -111q-2 -7 1.5 -15t10.5 -12l31 -18
q-1 -19 0 -38l-31 -18q-7 -4 -10.5 -12t-1.5 -15q18 -64 65 -111q5 -6 13 -7t16 3l31 18q16 -11 33 -19v-36q0 -9 5 -15.5t13 -8.5q64 -17 128 0q8 2 13 8.5t5 15.5v36q17 8 33 19l31 -18q8 -4 16 -3t13 7q47 47 65 111q2 7 -1.5 15t-10.5 12l-31 18q1 19 0 38zM400 148
l44 -25q-12 -32 -34 -59l-44 25q-24 -20 -35.5 -26.5t-40.5 -17.5v-50q-34 -6 -68 0v50q-29 11 -40.5 17.5t-35.5 26.5l-44 -25q-22 27 -34 59l44 25q-6 31 -6 44t6 44l-44 25q12 32 34 59l44 -25q24 20 35.5 26.5t40.5 17.5v50q34 6 68 0v-50q29 -11 40.5 -17.5t35.5 -26.5
l44 25q22 -27 34 -59l-44 -25q6 -31 6 -44t-6 -44zM256 288q-40 0 -68 -28t-28 -68t28 -68t68 -28t68 28t28 68t-28 68t-68 28zM256 144q-20 0 -34 14t-14 34t14 34t34 14t34 -14t14 -34t-14 -34t-34 -14z" />
    <glyph glyph-name="home" unicode="&#xf015;" horiz-adv-x="576" 
d="M557 207l-45 37v100q0 3 -2.5 5.5t-5.5 2.5h-32q-3 0 -5.5 -2.5t-2.5 -5.5v-60l-151 123q-11 9 -25 9t-25 -9l-244 -200q-3 -2 -3 -5t2 -6l20 -25q2 -2 5.5 -2.5t5.5 1.5l15 12v-198q0 -7 4.5 -11.5t11.5 -4.5h168q3 0 5.5 2.5t2.5 5.5v128h64v-128q0 -3 2.5 -5.5
t5.5 -2.5h168q7 0 11.5 4.5t4.5 11.5v198l15 -12q2 -2 5.5 -1.5t5.5 2.5l20 25q2 3 2 6t-3 5zM464 16h-96v128q0 3 -2.5 5.5t-5.5 2.5h-144q-3 0 -5.5 -2.5t-2.5 -5.5v-128h-96v206l171 140q5 4 10 0l171 -140v-206z" />
    <glyph glyph-name="clock" unicode="&#xf017;" 
d="M256 440q-67 0 -124 -33.5t-90.5 -90.5t-33.5 -124t33.5 -124t90.5 -90.5t124 -33.5t124 33.5t90.5 90.5t33.5 124t-33.5 124t-90.5 90.5t-124 33.5zM256 -8q-54 0 -100 27t-73 73t-27 100t27 100t73 73t100 27t100 -27t73 -73t27 -100t-27 -100t-73 -73t-100 -27z
M318 96l-85 62q-5 4 -5 10v164q0 5 3.5 8.5t8.5 3.5h32q5 0 8.5 -3.5t3.5 -8.5v-142l67 -48q4 -3 4.5 -8t-2.5 -9l-18 -26q-3 -4 -8 -5t-9 2z" />
    <glyph glyph-name="road" unicode="&#xf018;" horiz-adv-x="576" 
d="M268 256h40q6 0 9.5 4t2.5 9l-4 44q-1 3 -3 5t-5 2h-40q-3 0 -5 -2t-3 -5l-4 -44q-1 -5 2.5 -9t9.5 -4zM260 144h56q7 0 11.5 5.5t4.5 12.5l-6 48q0 6 -4.5 10t-10.5 4h-46q-6 0 -10.5 -4t-4.5 -10l-6 -48q0 -7 4.5 -12.5t11.5 -5.5zM273 352h30q3 0 5.5 2.5t2.5 6.5
l-2 16q0 3 -2.5 5t-5.5 2h-26q-3 0 -5.5 -2t-2.5 -5l-2 -16q0 -4 2.5 -6.5t5.5 -2.5zM322 112h-68q-7 0 -11.5 -4t-4.5 -10l-9 -80q-1 -7 4 -12.5t12 -5.5h86q7 0 11.5 5.5t4.5 12.5l-9 80q0 6 -4.5 10t-11.5 4zM173 384h-16q-5 0 -7 -5l-149 -357q-3 -8 1.5 -15t13.5 -7h44
q5 0 9.5 3t5.5 9l106 362q1 4 -1.5 7t-6.5 3zM575 22l-149 357q-2 5 -7 5h-16q-4 0 -6.5 -3t-1.5 -7l106 -362q1 -6 5.5 -9t9.5 -3h44q9 0 13.5 7t1.5 15z" />
    <glyph glyph-name="download" unicode="&#xf019;" horiz-adv-x="576" 
d="M528 160h-92l46 46q15 15 14.5 34.5t-14 33.5t-34.5 14h-64v112q0 20 -14 34t-34 14h-96q-20 0 -34 -14t-14 -34v-112h-64q-20 0 -33.5 -14t-14 -33.5t13.5 -34.5l46 -46h-92q-20 0 -34 -14t-14 -34v-128q0 -20 14 -34t34 -14h480q20 0 34 14t14 34v128q0 20 -14 34
t-34 14zM128 240h112v160h96v-160h112l-160 -160zM528 -16h-480v128h140l66 -66q14 -14 34 -14t34 14l66 66h140v-128zM440 48q0 10 7 17t17 7t17 -7t7 -17t-7 -17t-17 -7t-17 7t-7 17z" />
    <glyph glyph-name="inbox" unicode="&#xf01c;" horiz-adv-x="576" 
d="M567 212l-105 151q-6 10 -16.5 15.5t-22.5 5.5h-270q-12 0 -22.5 -5.5t-16.5 -15.5l-105 -151q-9 -12 -9 -27v-137q0 -20 14 -34t34 -14h480q20 0 34 14t14 34v137q0 15 -9 27zM153 336h270l78 -112h-123l-32 -64h-116l-32 64h-123zM528 48h-480v128h120l32 -64h176
l32 64h120v-128z" />
    <glyph glyph-name="redo" unicode="&#xf01e;" 
d="M500 440h-28q-5 0 -8.5 -3.5t-3.5 -8.5l3 -99q-34 51 -89 81t-119 30q-67 0 -124 -33.5t-90 -90.5t-33 -124.5t33.5 -124t90.5 -90t124 -33.5q47 0 90 17t76 47q4 3 4 8.5t-3 8.5l-20 20q-3 3 -8 3.5t-9 -2.5q-26 -24 -59.5 -37t-70.5 -13q-53 0 -98 26.5t-71.5 71.5
t-26.5 98t26.5 98t71.5 71.5t98 26.5q59 0 107 -31.5t72 -83.5l-127 3q-5 0 -8.5 -3.5t-3.5 -8.5v-28q0 -5 3.5 -8.5t8.5 -3.5h192q5 0 8.5 3.5t3.5 8.5v192q0 5 -3.5 8.5t-8.5 3.5z" />
    <glyph glyph-name="sync" unicode="&#xf021;" 
d="M500 440h-28q-5 0 -8.5 -3.5t-3.5 -8.5l3 -99q-34 51 -88.5 81t-118.5 30q-60 0 -111.5 -26.5t-86.5 -72.5t-46 -103q-1 -5 2.5 -9.5t9.5 -4.5h29q4 0 7.5 2.5t3.5 7.5q10 43 37.5 78.5t68 55.5t86.5 20q59 0 107 -31.5t72 -83.5l-127 3q-5 0 -8.5 -3.5t-3.5 -8.5v-28
q0 -5 3.5 -8.5t8.5 -3.5h192q5 0 8.5 3.5t3.5 8.5v192q0 5 -3.5 8.5t-8.5 3.5zM488 160h-29q-4 0 -7.5 -2.5t-3.5 -7.5q-10 -43 -37.5 -78.5t-68 -55.5t-86.5 -20q-59 0 -107 31.5t-72 83.5l127 -3q5 0 8.5 3.5t3.5 8.5v28q0 5 -3.5 8.5t-8.5 3.5h-192q-5 0 -8.5 -3.5
t-3.5 -8.5v-192q0 -5 3.5 -8.5t8.5 -3.5h28q5 0 8.5 3.5t3.5 8.5l-3 99q34 -51 88.5 -81t118.5 -30q60 0 111.5 26.5t86.5 72.5t46 103q1 5 -2.5 9.5t-9.5 4.5z" />
    <glyph glyph-name="list-alt" unicode="&#xf022;" 
d="M464 416h-416q-20 0 -34 -14t-14 -34v-352q0 -20 14 -34t34 -14h416q20 0 34 14t14 34v352q0 20 -14 34t-34 14zM458 16h-404q-2 0 -4 2t-2 4v340q0 2 2 4t4 2h404q2 0 4 -2t2 -4v-340q0 -2 -2 -4t-4 -2zM416 108v-24q0 -5 -3.5 -8.5t-8.5 -3.5h-200q-5 0 -8.5 3.5
t-3.5 8.5v24q0 5 3.5 8.5t8.5 3.5h200q5 0 8.5 -3.5t3.5 -8.5zM416 204v-24q0 -5 -3.5 -8.5t-8.5 -3.5h-200q-5 0 -8.5 3.5t-3.5 8.5v24q0 5 3.5 8.5t8.5 3.5h200q5 0 8.5 -3.5t3.5 -8.5zM416 300v-24q0 -5 -3.5 -8.5t-8.5 -3.5h-200q-5 0 -8.5 3.5t-3.5 8.5v24q0 5 3.5 8.5
t8.5 3.5h200q5 0 8.5 -3.5t3.5 -8.5zM164 288q0 -15 -10.5 -25.5t-25.5 -10.5t-25.5 10.5t-10.5 25.5t10.5 25.5t25.5 10.5t25.5 -10.5t10.5 -25.5zM164 192q0 -15 -10.5 -25.5t-25.5 -10.5t-25.5 10.5t-10.5 25.5t10.5 25.5t25.5 10.5t25.5 -10.5t10.5 -25.5zM164 96
q0 -15 -10.5 -25.5t-25.5 -10.5t-25.5 10.5t-10.5 25.5t10.5 25.5t25.5 10.5t25.5 -10.5t10.5 -25.5z" />
    <glyph glyph-name="lock" unicode="&#xf023;" horiz-adv-x="448" 
d="M400 256h-32v47q0 39 -19.5 72.5t-52.5 53t-72 19.5t-72 -19.5t-52.5 -52.5t-19.5 -72v-48h-32q-20 0 -34 -14t-14 -34v-224q0 -20 14 -34t34 -14h352q20 0 34 14t14 34v224q0 20 -14 34t-34 14zM128 304q0 40 28 68t68 28t68 -28t28 -68v-48h-192v48zM400 -16h-352v224
h352v-224z" />
    <glyph glyph-name="tag" unicode="&#xf02b;" 
d="M498 222l-212 212q-14 14 -34 14h-204q-20 0 -34 -14t-14 -34v-204q0 -20 14 -34l212 -212q14 -14 34 -14t34 14l204 204q14 14 14 34t-14 34zM260 -16l-212 212v204h204l212 -212zM192 304q0 -20 -14 -34t-34 -14t-34 14t-14 34t14 34t34 14t34 -14t14 -34z" />
    <glyph glyph-name="tags" unicode="&#xf02c;" horiz-adv-x="640" 
d="M626 154l-204 -204q-14 -14 -34 -14t-34 14v0l238 238l-261 260h49q20 0 34 -14l212 -212q14 -14 14 -34t-14 -34zM498 154l-204 -204q-14 -14 -34 -14t-34 14l-212 212q-14 14 -14 34v204q0 20 14 34t34 14h204q20 0 34 -14l212 -212q14 -14 14 -34t-14 -34zM464 188
l-212 212h-204v-204l212 -212zM144 352q-20 0 -34 -14t-14 -34t14 -34t34 -14t34 14t14 34t-14 34t-34 14z" />
    <glyph glyph-name="book" unicode="&#xf02d;" horiz-adv-x="448" 
d="M128 296v32q0 3 2.5 5.5t5.5 2.5h208q3 0 5.5 -2.5t2.5 -5.5v-32q0 -3 -2.5 -5.5t-5.5 -2.5h-208q-3 0 -5.5 2.5t-2.5 5.5zM136 208h208q3 0 5.5 2.5t2.5 5.5v32q0 3 -2.5 5.5t-5.5 2.5h-208q-3 0 -5.5 -2.5t-2.5 -5.5v-32q0 -3 2.5 -5.5t5.5 -2.5zM435 48q-3 -9 -3 -32
t3 -32q6 -1 9.5 -5.5t3.5 -10.5v-16q0 -7 -4.5 -11.5t-11.5 -4.5h-352q-33 0 -56.5 23.5t-23.5 56.5v352q0 33 23.5 56.5t56.5 23.5h352q7 0 11.5 -4.5t4.5 -11.5v-368q0 -6 -3.5 -10.5t-9.5 -5.5zM394 48h-314q-13 0 -22.5 -9.5t-9.5 -22.5t9.5 -22.5t22.5 -9.5h314
q-2 13 -2 32t2 32zM400 400h-320q-13 0 -22.5 -9.5t-9.5 -22.5v-279q15 7 32 7h320v304z" />
    <glyph glyph-name="bookmark" unicode="&#xf02e;" horiz-adv-x="384" 
d="M336 448h-288q-20 0 -34 -14t-14 -34v-464l192 112l192 -112v464q0 20 -14 34t-34 14zM336 20l-144 84l-144 -84v374q0 2 2 4t4 2h276q2 0 4 -2t2 -4v-374z" />
    <glyph glyph-name="print" unicode="&#xf02f;" 
d="M400 184q-10 0 -17 -7t-7 -17t7 -17t17 -7t17 7t7 17t-7 17t-17 7zM432 272v76q0 20 -14 34l-52 52q-14 14 -34 14h-222q-12 0 -21 -9.5t-9 -22.5v-144q-33 0 -56.5 -23.5t-23.5 -56.5v-128q0 -7 4.5 -11.5t11.5 -4.5h64v-96q0 -7 4.5 -11.5t11.5 -4.5h320q7 0 11.5 4.5
t4.5 11.5v96h64q7 0 11.5 4.5t4.5 11.5v128q0 33 -23.5 56.5t-56.5 23.5zM128 400h192v-48q0 -7 4.5 -11.5t11.5 -4.5h48v-64h-256v128zM384 -16h-256v64h256v-64zM464 96h-416v96q0 13 9.5 22.5t22.5 9.5h352q13 0 22.5 -9.5t9.5 -22.5v-96z" />
    <glyph glyph-name="camera" unicode="&#xf030;" 
d="M343 304h121v-288h-416v288h121l24 64h126zM324 416h-131q-15 0 -27 -8.5t-18 -22.5l-12 -33h-88q-20 0 -34 -14t-14 -34v-288q0 -20 14 -34t34 -14h416q20 0 34 14t14 34v288q0 20 -14 34t-34 14h-88l-14 38q-5 12 -15 19t-23 7zM256 40q-33 0 -60.5 16t-43.5 43.5
t-16 60.5t16 60.5t43.5 43.5t60.5 16t60.5 -16t43.5 -43.5t16 -60.5t-16 -60.5t-43.5 -43.5t-60.5 -16zM256 232q-30 0 -51 -21t-21 -51t21 -51t51 -21t51 21t21 51t-21 51t-51 21z" />
    <glyph glyph-name="video" unicode="&#xf03d;" horiz-adv-x="576" 
d="M544 352q-10 0 -18 -6l-110 -68v58q0 20 -15 34t-37 14h-312q-22 0 -37 -14t-15 -34v-288q0 -20 15 -34t37 -14h312q22 0 37 14t15 34v58l110 -68q8 -6 18 -6q13 0 22.5 9t9.5 23v257q0 13 -9.5 22t-22.5 9zM368 248v-199q-2 -1 -4 -1h-312q-3 0 -4 1v286q2 1 4 1h312
q3 0 4 -1v-87zM528 93l-112 70v58l112 70v-198z" />
    <glyph glyph-name="image" unicode="&#xf03e;" 
d="M464 384h-416q-20 0 -34 -14t-14 -34v-288q0 -20 14 -34t34 -14h416q20 0 34 14t14 34v288q0 20 -14 34t-34 14zM458 48h-404q-2 0 -4 2t-2 4v276q0 2 2 4t4 2h404q2 0 4 -2t2 -4v-276q0 -2 -2 -4t-4 -2zM128 296q-17 0 -28.5 -11.5t-11.5 -28.5t11.5 -28.5t28.5 -11.5
t28.5 11.5t11.5 28.5t-11.5 28.5t-28.5 11.5zM96 96h320v80l-88 88q-3 3 -8 3t-8 -3l-120 -120l-40 40q-3 3 -8 3t-8 -3l-40 -40v-48z" />
    <glyph glyph-name="pencil" unicode="&#xf040;" 
d="M492 374l-54 54q-20 20 -48 20t-48 -20l-317 -315l-25 -149q-2 -12 7 -21t21 -7l149 25l315 317q20 20 20 48t-20 48zM121 146l170 169l88 -88l-169 -170v41h-48v48h-41zM82 -10l-28 28l12 74l18 18h42v-48h48v-42l-18 -18zM461 309v0l-48 -48l-88 88l48 48q7 7 17 7
t17 -7l53 -54q8 -7 8 -17t-7 -17z" />
    <glyph glyph-name="map-marker" unicode="&#xf041;" horiz-adv-x="384" 
d="M192 448q-52 0 -96 -26t-70 -70t-26 -96q0 -29 7 -52t27 -59q14 -23 58 -93l59 -93q9 -15 25 -20.5t32 0t25 20.5l59 93q44 70 58 94q20 35 27 58t7 52q0 52 -26 96t-70 70t-96 26zM192 -16q-25 40 -63 99q-40 64 -52 85q-18 30 -23.5 47.5t-5.5 40.5q0 39 19.5 72
t52.5 52.5t72 19.5t72 -19.5t52.5 -52.5t19.5 -72q0 -23 -5.5 -40t-22.5 -47q-13 -21 -53 -85z" />
    <glyph glyph-name="adjust" unicode="&#xf042;" 
d="M256 392q54 0 100 -27t73 -73t27 -100t-27 -100t-73 -73t-100 -27t-100 27t-73 73t-27 100t27 100t73 73t100 27zM256 440q-67 0 -124 -33.5t-90.5 -90.5t-33.5 -124t33.5 -124t90.5 -90.5t124 -33.5t124 33.5t90.5 90.5t33.5 124t-33.5 124t-90.5 90.5t-124 33.5z
M256 344q-41 0 -76 -20.5t-55.5 -55.5t-20.5 -76t20.5 -76t55.5 -55.5t76 -20.5v304z" />
    <glyph glyph-name="tint" unicode="&#xf043;" horiz-adv-x="352" 
d="M205 426q-3 10 -11 16t-18 6t-18 -5.5t-11 -16.5q-15 -50 -40 -95q-16 -27 -47 -72t-42 -68q-18 -38 -18 -77q0 -48 23.5 -89t64 -65t88.5 -24t88.5 24t64 65t23.5 89q0 40 -18 77q-11 23 -42 67.5t-46 71.5q-26 46 -41 96zM176 -16q-35 0 -64.5 17.5t-46.5 47.5t-17 65
q0 30 14 58q9 19 38 60v0q25 36 38 58q23 37 38 74q15 -37 38 -74q13 -22 38 -58v0q29 -41 38 -60q14 -28 14 -58q0 -35 -17 -65t-46.5 -47.5t-64.5 -17.5zM192 48q-33 0 -56.5 23.5t-23.5 56.5q0 7 -4.5 11.5t-11.5 4.5t-11.5 -4.5t-4.5 -11.5q0 -30 15 -56t41 -41t56 -15
q7 0 11.5 4.5t4.5 11.5t-4.5 11.5t-11.5 4.5z" />
    <glyph glyph-name="edit" unicode="&#xf044;" horiz-adv-x="576" 
d="M402 103l32 32q4 4 9 2t5 -8v-145q0 -20 -14 -34t-34 -14h-352q-20 0 -34 14t-14 34v352q0 20 14 34t34 14h274q5 0 7 -5t-2 -9l-32 -32q-2 -2 -5 -2h-242v-352h352v114q0 3 2 5zM559 305l-263 -263l-90 -10q-20 -2 -34 12t-12 34l10 90l263 263q17 17 41.5 17t41.5 -17
l43 -43q17 -17 17 -41.5t-17 -41.5zM460 274l-58 58l-186 -186l-7 -65l65 7zM525 354l-43 43q-3 3 -7.5 3t-7.5 -3l-31 -31l58 -58l31 31q3 3 3 7.5t-3 7.5z" />
    <glyph glyph-name="step-backward" unicode="&#xf048;" horiz-adv-x="448" 
d="M76 -32h24q5 0 8.5 3.5t3.5 8.5v183l220 -188q9 -8 21.5 -7t21.5 10t9 22v384q0 13 -9 22t-21.5 10t-21.5 -7l-220 -189v184q0 5 -3.5 8.5t-8.5 3.5h-24q-5 0 -8.5 -3.5t-3.5 -8.5v-424q0 -5 3.5 -8.5t8.5 -3.5zM336 350v-316l-187 158z" />
    <glyph glyph-name="fast-backward" unicode="&#xf049;" 
d="M12 0h24q5 0 8.5 3.5t3.5 8.5v158l188 -163q9 -8 21.5 -7t21.5 10t9 22v124l172 -149q9 -8 21.5 -7t21.5 10t9 22v320q0 13 -9 22t-21.5 10t-21.5 -7l-172 -150v125q0 13 -9 22t-21.5 10t-21.5 -8l-188 -163v159q0 5 -3.5 8.5t-8.5 3.5h-24q-5 0 -8.5 -3.5t-3.5 -8.5
v-360q0 -5 3.5 -8.5t8.5 -3.5zM464 317v-250l-144 125zM240 317v-250l-144 125z" />
    <glyph glyph-name="backward" unicode="&#xf04a;" 
d="M268 167l192 -160q9 -8 21.5 -7t21.5 10t9 22v320q0 13 -9 22t-21.5 10t-21.5 -7l-192 -161q-12 -10 -12 -25t12 -24zM464 318v-252l-151 125zM12 167l192 -160q9 -8 21.5 -7t21.5 10t9 22v320q0 13 -9 22t-21.5 10t-21.5 -7l-192 -161q-12 -10 -12 -25t11 -24h1z
M208 318v-252l-151 125z" />
    <glyph glyph-name="play" unicode="&#xf04b;" horiz-adv-x="448" 
d="M424 233l-352 208q-14 9 -31 6.5t-29 -15t-12 -32.5v-416q0 -18 11.5 -31t28.5 -16t32 6l352 208q16 9 21.5 25t0 32t-21.5 25zM48 -5v395q0 3 3 4.5t6 0.5l334 -198q3 -2 3 -5t-3 -5l-334 -198q-3 -1 -6 0.5t-3 5.5z" />
    <glyph glyph-name="pause" unicode="&#xf04c;" horiz-adv-x="448" 
d="M192 369v-352q0 -20 -14 -34t-34 -14h-96q-20 0 -34 14t-14 34v352q0 20 14 34t34 14h96q20 0 34 -14t14 -34zM144 23v340q0 2 -2 4t-4 2h-84q-2 0 -4 -2t-2 -4v-340q0 -2 2 -4t4 -2h84q2 0 4 2t2 4zM448 369v-352q0 -20 -14 -34t-34 -14h-96q-20 0 -34 14t-14 34v352
q0 20 14 34t34 14h96q20 0 34 -14t14 -34zM400 23v340q0 2 -2 4t-4 2h-84q-2 0 -4 -2t-2 -4v-340q0 -2 2 -4t4 -2h84q2 0 4 2t2 4z" />
    <glyph glyph-name="square" unicode="&#xf04d;" horiz-adv-x="448" 
d="M400 416h-352q-20 0 -34 -14t-14 -34v-352q0 -20 14 -34t34 -14h352q20 0 34 14t14 34v352q0 20 -14 34t-34 14zM394 16h-340q-2 0 -4 2t-2 4v340q0 2 2 4t4 2h340q2 0 4 -2t2 -4v-340q0 -2 -2 -4t-4 -2z" />
    <glyph glyph-name="square" unicode="&#xf0c8;" horiz-adv-x="448" 
d="M400 416h-352q-20 0 -34 -14t-14 -34v-352q0 -20 14 -34t34 -14h352q20 0 34 14t14 34v352q0 20 -14 34t-34 14zM394 16h-340q-2 0 -4 2t-2 4v340q0 2 2 4t4 2h340q2 0 4 -2t2 -4v-340q0 -2 -2 -4t-4 -2z" />
    <glyph glyph-name="forward" unicode="&#xf04e;" 
d="M245 217l-192 160q-10 8 -22.5 7t-21.5 -10t-9 -22v-320q0 -13 9 -22t21.5 -10t22.5 7l192 161q11 10 11 25t-12 24h1zM48 66v252l151 -125zM501 217l-192 160q-10 8 -22.5 7t-21.5 -10t-9 -22v-320q0 -13 9 -22t21.5 -10t21.5 7l193 161q11 10 11 25t-12 24h1zM304 66
v252l151 -125z" />
    <glyph glyph-name="fast-forward" unicode="&#xf050;" 
d="M500 384h-24q-5 0 -8.5 -3.5t-3.5 -8.5v-158l-187 163q-10 8 -22.5 7t-21.5 -10t-9 -22v-124l-171 149q-10 8 -22.5 7t-21.5 -10t-9 -22v-320q0 -13 9 -22t21.5 -10t22.5 7l171 150v-125q0 -13 9 -22t21.5 -10t21.5 7l188 164v-159q0 -5 3.5 -8.5t8.5 -3.5h24
q5 0 8.5 3.5t3.5 8.5v360q0 5 -3.5 8.5t-8.5 3.5zM48 67v250l144 -124zM272 67v250l144 -124z" />
    <glyph glyph-name="step-forward" unicode="&#xf051;" horiz-adv-x="448" 
d="M372 416h-24q-5 0 -8.5 -3.5t-3.5 -8.5v-183l-219 188q-10 8 -22.5 7t-21.5 -10t-9 -22v-384q0 -13 9 -22t21.5 -10t22.5 7l219 189v-184q0 -5 3.5 -8.5t8.5 -3.5h24q5 0 8.5 3.5t3.5 8.5v424q0 5 -3.5 8.5t-8.5 3.5zM112 35v315l187 -157z" />
    <glyph glyph-name="eject" unicode="&#xf052;" horiz-adv-x="448" 
d="M400 128h-352q-20 0 -34 -14t-14 -34v-64q0 -20 14 -34t34 -14h352q20 0 34 14t14 34v64q0 20 -14 34t-34 14zM400 16h-352v64h352v-64zM48 144h352q21 0 34.5 14t13.5 33.5t-14 34.5l-176 176q-14 14 -34 14t-34 -14l-176 -176q-14 -15 -14 -34.5t13.5 -33.5t34.5 -14z
M224 368l176 -176h-352z" />
    <glyph glyph-name="chevron-left" unicode="&#xf053;" horiz-adv-x="256" 
d="M231 -26l20 20q4 3 4 8t-4 9l-181 181l181 181q4 4 4 9t-4 8l-20 20q-3 3 -8 3t-9 -3l-209 -210q-4 -3 -4 -8t4 -8l209 -210q4 -3 9 -3t8 3z" />
    <glyph glyph-name="chevron-right" unicode="&#xf054;" horiz-adv-x="256" 
d="M25 410l-20 -20q-4 -3 -4 -8t4 -9l181 -181l-181 -181q-4 -4 -4 -9t4 -8l20 -20q3 -3 8 -3t9 3l209 210q4 3 4 8t-4 8l-209 210q-4 3 -9 3t-8 -3z" />
    <glyph glyph-name="plus-circle" unicode="&#xf055;" 
d="M384 208v-32q0 -5 -3.5 -8.5t-8.5 -3.5h-88v-88q0 -5 -3.5 -8.5t-8.5 -3.5h-32q-5 0 -8.5 3.5t-3.5 8.5v88h-88q-5 0 -8.5 3.5t-3.5 8.5v32q0 5 3.5 8.5t8.5 3.5h88v88q0 5 3.5 8.5t8.5 3.5h32q5 0 8.5 -3.5t3.5 -8.5v-88h88q5 0 8.5 -3.5t3.5 -8.5zM504 192
q0 -67 -33.5 -124t-90.5 -90.5t-124 -33.5t-124 33.5t-90.5 90.5t-33.5 124t33.5 124t90.5 90.5t124 33.5t124 -33.5t90.5 -90.5t33.5 -124zM456 192q0 54 -27 100t-73 73t-100 27t-100 -27t-73 -73t-27 -100t27 -100t73 -73t100 -27t100 27t73 73t27 100z" />
    <glyph glyph-name="minus-circle" unicode="&#xf056;" 
d="M140 164q-5 0 -8.5 3.5t-3.5 8.5v32q0 5 3.5 8.5t8.5 3.5h232q5 0 8.5 -3.5t3.5 -8.5v-32q0 -5 -3.5 -8.5t-8.5 -3.5h-232zM504 192q0 -67 -33.5 -124t-90.5 -90.5t-124 -33.5t-124 33.5t-90.5 90.5t-33.5 124t33.5 124t90.5 90.5t124 33.5t124 -33.5t90.5 -90.5
t33.5 -124zM456 192q0 54 -27 100t-73 73t-100 27t-100 -27t-73 -73t-27 -100t27 -100t73 -73t100 -27t100 27t73 73t27 100z" />
    <glyph glyph-name="times-circle" unicode="&#xf057;" 
d="M256 440q-67 0 -124 -33.5t-90.5 -90.5t-33.5 -124t33.5 -124t90.5 -90.5t124 -33.5t124 33.5t90.5 90.5t33.5 124t-33.5 124t-90.5 90.5t-124 33.5zM256 -8q-54 0 -100 27t-73 73t-27 100t27 100t73 73t100 27t100 -27t73 -73t27 -100t-27 -100t-73 -73t-100 -27z
M358 254l-62 -62l62 -62q3 -4 3 -9t-3 -8l-23 -23q-3 -3 -8 -3t-9 3l-62 62l-62 -62q-4 -3 -9 -3t-8 3l-23 23q-3 3 -3 8t3 9l62 62l-62 62q-3 4 -3 9t3 8l23 23q3 3 8 3t9 -3l62 -62l62 62q4 3 9 3t8 -3l23 -23q3 -3 3 -8t-3 -9z" />
    <glyph glyph-name="check-circle" unicode="&#xf058;" 
d="M256 440q-67 0 -124 -33.5t-90.5 -90.5t-33.5 -124t33.5 -124t90.5 -90.5t124 -33.5t124 33.5t90.5 90.5t33.5 124t-33.5 124t-90.5 90.5t-124 33.5zM256 392q54 0 100 -27t73 -73t27 -100t-27 -100t-73 -73t-100 -27t-100 27t-73 73t-27 100t27 100t73 73t100 27z
M396 262l-22 22q-4 4 -9 4t-8 -3l-142 -141l-59 61q-4 3 -9 3t-8 -3l-23 -23q-4 -3 -4 -8t4 -9l91 -91q3 -4 8 -4t9 4l172 171q4 3 4 8t-4 9z" />
    <glyph glyph-name="question-circle" unicode="&#xf059;" 
d="M256 440q-67 0 -124 -33.5t-90.5 -90.5t-33.5 -124t33.5 -124t90.5 -90.5t124 -33.5t124 33.5t90.5 90.5t33.5 124t-33.5 124t-90.5 90.5t-124 33.5zM256 -8q-54 0 -100 27t-73 73t-27 100t27 100t73 73t100 27t100 -27t73 -73t27 -100t-27 -100t-73 -73t-100 -27z
M363 247q0 -27 -16 -46q-10 -11 -33 -24q-12 -7 -16 -11q-7 -5 -7 -12v-6q0 -5 -3.5 -8.5t-8.5 -3.5h-46q-5 0 -8.5 3.5t-3.5 8.5v9q0 23 16 39q9 9 30 21l2 1q15 9 21 14q7 7 7 16q0 12 -12.5 20t-28 8t-26.5 -7q-9 -6 -22 -23q-3 -3 -7.5 -4t-8.5 2l-28 21q-4 3 -4.5 8
t1.5 9q19 27 43 40.5t58 13.5q24 0 48 -12t38.5 -32t14.5 -45zM298 80q0 -17 -12.5 -29.5t-29.5 -12.5t-29.5 12.5t-12.5 29.5t12.5 29.5t29.5 12.5t29.5 -12.5t12.5 -29.5z" />
    <glyph glyph-name="info-circle" unicode="&#xf05a;" 
d="M256 440q-67 0 -124 -33.5t-90.5 -90.5t-33.5 -124t33.5 -124t90.5 -90.5t124 -33.5t124 33.5t90.5 90.5t33.5 124t-33.5 124t-90.5 90.5t-124 33.5zM256 -8q-54 0 -100 27t-73 73t-27 100t27 100t73 73t100 27t100 -27t73 -73t27 -100t-27 -100t-73 -73t-100 -27z
M256 330q17 0 29.5 -12.5t12.5 -29.5t-12.5 -29.5t-29.5 -12.5t-29.5 12.5t-12.5 29.5t12.5 29.5t29.5 12.5zM312 76q0 -5 -3.5 -8.5t-8.5 -3.5h-88q-5 0 -8.5 3.5t-3.5 8.5v24q0 5 3.5 8.5t8.5 3.5h12v64h-12q-5 0 -8.5 3.5t-3.5 8.5v24q0 5 3.5 8.5t8.5 3.5h64
q5 0 8.5 -3.5t3.5 -8.5v-100h12q5 0 8.5 -3.5t3.5 -8.5v-24z" />
    <glyph glyph-name="crosshairs" unicode="&#xf05b;" 
d="M500 216h-29q-6 49 -32 91t-68 68t-91 32v29q0 5 -3.5 8.5t-8.5 3.5h-24q-5 0 -8.5 -3.5t-3.5 -8.5v-29q-49 -6 -91 -32t-68 -68t-32 -91h-29q-5 0 -8.5 -3.5t-3.5 -8.5v-24q0 -5 3.5 -8.5t8.5 -3.5h29q6 -49 32 -91t68 -68t91 -32v-29q0 -5 3.5 -8.5t8.5 -3.5h24
q5 0 8.5 3.5t3.5 8.5v29q49 6 91 32t68 68t32 91h29q5 0 8.5 3.5t3.5 8.5v24q0 5 -3.5 8.5t-8.5 3.5zM280 26v42q0 5 -3.5 8.5t-8.5 3.5h-24q-5 0 -8.5 -3.5t-3.5 -8.5v-42q-55 8 -94.5 47.5t-47.5 94.5h42q5 0 8.5 3.5t3.5 8.5v24q0 5 -3.5 8.5t-8.5 3.5h-42
q8 55 47.5 94.5t94.5 47.5v-42q0 -5 3.5 -8.5t8.5 -3.5h24q5 0 8.5 3.5t3.5 8.5v42q55 -8 94.5 -47.5t47.5 -94.5h-42q-5 0 -8.5 -3.5t-3.5 -8.5v-24q0 -5 3.5 -8.5t8.5 -3.5h42q-8 -55 -47.5 -94.5t-94.5 -47.5zM288 192q0 -13 -9.5 -22.5t-22.5 -9.5t-22.5 9.5t-9.5 22.5
t9.5 22.5t22.5 9.5t22.5 -9.5t9.5 -22.5z" />
    <glyph glyph-name="ban" unicode="&#xf05e;" 
d="M256 440q-67 0 -124 -33.5t-90.5 -90.5t-33.5 -124t33.5 -124t90.5 -90.5t124 -33.5t124 33.5t90.5 90.5t33.5 124t-33.5 124t-90.5 90.5t-124 33.5zM397 333q36 -35 50.5 -82.5t5.5 -95.5t-40 -86l-280 280q38 31 86 40t95.5 -5.5t82.5 -50.5zM115 51q-36 35 -50.5 82.5
t-5.5 95.5t40 86l280 -280q-38 -31 -86 -40t-95.5 5.5t-82.5 50.5z" />
    <glyph glyph-name="share" unicode="&#xf064;" horiz-adv-x="576" 
d="M562 258l-176 176q-15 14 -34.5 14t-33.5 -13.5t-14 -34.5v-81q-133 -4 -204 -38q-100 -49 -100 -163q0 -54 26 -100q26 -44 72 -74q18 -12 37.5 -6.5t30 23t4.5 37.5q-13 43 -9 66q6 28 38 43q34 15 105 19v-78q0 -21 14 -34.5t33.5 -13.5t34.5 14l176 176q14 14 14 34
t-14 34zM352 48v128q-91 -1 -143 -15q-63 -18 -84 -57q-25 -44 -1 -120q-32 21 -51 51q-25 37 -25 83q0 66 47 103q39 31 115 42q52 9 142 9v128l176 -176z" />
    <glyph glyph-name="expand" unicode="&#xf065;" horiz-adv-x="448" 
d="M0 268v124q0 10 7 17t17 7h124q5 0 8.5 -3.5t3.5 -8.5v-24q0 -5 -3.5 -8.5t-8.5 -3.5h-100v-100q0 -5 -3.5 -8.5t-8.5 -3.5h-24q-5 0 -8.5 3.5t-3.5 8.5zM288 404v-24q0 -5 3.5 -8.5t8.5 -3.5h100v-100q0 -5 3.5 -8.5t8.5 -3.5h24q5 0 8.5 3.5t3.5 8.5v124q0 10 -7 17
t-17 7h-124q-5 0 -8.5 -3.5t-3.5 -8.5zM436 128h-24q-5 0 -8.5 -3.5t-3.5 -8.5v-100h-100q-5 0 -8.5 -3.5t-3.5 -8.5v-24q0 -5 3.5 -8.5t8.5 -3.5h124q10 0 17 7t7 17v124q0 5 -3.5 8.5t-8.5 3.5zM160 -20v24q0 5 -3.5 8.5t-8.5 3.5h-100v100q0 5 -3.5 8.5t-8.5 3.5h-24
q-5 0 -8.5 -3.5t-3.5 -8.5v-124q0 -10 7 -17t17 -7h124q5 0 8.5 3.5t3.5 8.5z" />
    <glyph glyph-name="compress" unicode="&#xf066;" horiz-adv-x="448" 
d="M436 256h-124q-10 0 -17 7t-7 17v124q0 5 3.5 8.5t8.5 3.5h24q5 0 8.5 -3.5t3.5 -8.5v-100h100q5 0 8.5 -3.5t3.5 -8.5v-24q0 -5 -3.5 -8.5t-8.5 -3.5zM160 280v124q0 5 -3.5 8.5t-8.5 3.5h-24q-5 0 -8.5 -3.5t-3.5 -8.5v-100h-100q-5 0 -8.5 -3.5t-3.5 -8.5v-24
q0 -5 3.5 -8.5t8.5 -3.5h124q10 0 17 7t7 17zM160 -20v124q0 10 -7 17t-17 7h-124q-5 0 -8.5 -3.5t-3.5 -8.5v-24q0 -5 3.5 -8.5t8.5 -3.5h100v-100q0 -5 3.5 -8.5t8.5 -3.5h24q5 0 8.5 3.5t3.5 8.5zM336 -20v100h100q5 0 8.5 3.5t3.5 8.5v24q0 5 -3.5 8.5t-8.5 3.5h-124
q-10 0 -17 -7t-7 -17v-124q0 -5 3.5 -8.5t8.5 -3.5h24q5 0 8.5 3.5t3.5 8.5z" />
    <glyph glyph-name="plus" unicode="&#xf067;" horiz-adv-x="384" 
d="M368 224h-144v144q0 7 -4.5 11.5t-11.5 4.5h-32q-7 0 -11.5 -4.5t-4.5 -11.5v-144h-144q-7 0 -11.5 -4.5t-4.5 -11.5v-32q0 -7 4.5 -11.5t11.5 -4.5h144v-144q0 -7 4.5 -11.5t11.5 -4.5h32q7 0 11.5 4.5t4.5 11.5v144h144q7 0 11.5 4.5t4.5 11.5v32q0 7 -4.5 11.5
t-11.5 4.5z" />
    <glyph glyph-name="minus" unicode="&#xf068;" horiz-adv-x="384" 
d="M368 224h-352q-7 0 -11.5 -4.5t-4.5 -11.5v-32q0 -7 4.5 -11.5t11.5 -4.5h352q7 0 11.5 4.5t4.5 11.5v32q0 7 -4.5 11.5t-11.5 4.5z" />
    <glyph glyph-name="asterisk" unicode="&#xf069;" 
d="M479 91l-175 101l175 101q5 3 6 7.5t-1 9.5l-12 20q-3 5 -7.5 6t-9.5 -1l-175 -101v202q0 5 -3.5 8.5t-8.5 3.5h-24q-5 0 -8.5 -3.5t-3.5 -8.5v-202l-175 101q-5 2 -9.5 1t-7.5 -6l-12 -20q-2 -5 -1 -9.5t6 -7.5l175 -101l-175 -101q-5 -3 -6 -7.5t1 -9.5l12 -20
q3 -5 7.5 -6t9.5 1l175 101v-202q0 -5 3.5 -8.5t8.5 -3.5h24q5 0 8.5 3.5t3.5 8.5v202l175 -101q5 -2 9.5 -1t7.5 6l12 20q2 5 1 9.5t-6 7.5z" />
    <glyph glyph-name="exclamation-circle" unicode="&#xf06a;" 
d="M256 440q-67 0 -124 -33.5t-90.5 -90.5t-33.5 -124t33.5 -124t90.5 -90.5t124 -33.5t124 33.5t90.5 90.5t33.5 124t-33.5 124t-90.5 90.5t-124 33.5zM256 -8q-54 0 -100 27t-73 73t-27 100t27 100t73 73t100 27t100 -27t73 -73t27 -100t-27 -100t-73 -73t-100 -27z
M298 96q0 -17 -12.5 -29.5t-29.5 -12.5t-29.5 12.5t-12.5 29.5t12.5 29.5t29.5 12.5t29.5 -12.5t12.5 -29.5zM217 307l6 -136q1 -4 4.5 -7.5t7.5 -3.5h42q4 0 7.5 3.5t4.5 7.5l6 136q1 6 -2.5 9.5t-9.5 3.5h-54q-6 0 -9.5 -3.5t-2.5 -9.5z" />
    <glyph glyph-name="gift" unicode="&#xf06b;" 
d="M464 304h-26q10 20 10 40q0 36 -26 62t-62 26q-30 0 -54 -17q-22 -15 -49 -51q-27 36 -49 51q-24 17 -54 17q-36 0 -62 -26t-26 -62q0 -21 10 -40h-28q-20 0 -34 -14t-14 -34v-128q0 -7 4.5 -11.5t11.5 -4.5h16v-107q0 -22 15.5 -37.5t37.5 -15.5h342q22 0 37.5 15.5
t15.5 37.5v107h16q7 0 11.5 4.5t4.5 11.5v128q0 20 -14 34t-34 14zM232 0h-147q-5 0 -5 5v107h112v48h-144v96h184v-256zM154 304q-17 0 -28.5 11.5t-11.5 28.5t11.5 28.5t28.5 11.5q12 0 21 -5q11 -5 25.5 -21.5t37.5 -50.5l2 -3h-86zM276 307q23 34 37.5 50.5t25.5 21.5
q9 5 21 5q17 0 28.5 -11.5t11.5 -28.5t-11.5 -28.5t-28.5 -11.5h-86zM464 160h-144v-48h112v-107q0 -5 -5 -5h-147v256h184v-96z" />
    <glyph glyph-name="exclamation-triangle" unicode="&#xf071;" horiz-adv-x="576" 
d="M249 243l6 -112q1 -4 4.5 -7.5t7.5 -3.5h42q4 0 7.5 3.5t4.5 7.5l6 112q1 5 -3 9t-9 4h-54q-5 0 -9 -4t-3 -9zM330 64q0 -17 -12.5 -29.5t-29.5 -12.5t-29.5 12.5t-12.5 29.5t12.5 29.5t29.5 12.5t29.5 -12.5t12.5 -29.5zM330 424q-9 16 -25.5 21.5t-33 0t-25.5 -21.5
l-240 -416q-8 -16 -5 -32.5t16 -28t31 -11.5h480q18 0 31 11.5t16 28t-5 32.5zM53 -7l230 398q2 3 5 3t5 -3l230 -398q2 -3 0 -6t-5 -3h-460q-3 0 -5 3t0 6z" />
    <glyph glyph-name="calendar-alt" unicode="&#xf073;" horiz-adv-x="448" 
d="M400 384h-48v48q0 7 -4.5 11.5t-11.5 4.5h-32q-7 0 -11.5 -4.5t-4.5 -11.5v-48h-128v48q0 7 -4.5 11.5t-11.5 4.5h-32q-7 0 -11.5 -4.5t-4.5 -11.5v-48h-48q-20 0 -34 -14t-14 -34v-352q0 -20 14 -34t34 -14h352q20 0 34 14t14 34v352q0 20 -14 34t-34 14zM400 288v-80
h-96v80h96zM176 96v80h96v-80h-96zM272 64v-80h-96v80h96zM144 96h-96v80h96v-80zM176 208v80h96v-80h-96zM304 176h96v-80h-96v80zM144 288v-80h-96v80h96zM48 -10v74h96v-80h-90q-2 0 -4 2t-2 4zM394 -16h-90v80h96v-74q0 -2 -2 -4t-4 -2z" />
    <glyph glyph-name="random" unicode="&#xf074;" 
d="M505 48l-79 -73q-7 -7 -17 -7t-17.5 7t-7.5 17v40h-31q-5 0 -9 4l-90 97l39 42l79 -87h12v48q0 11 7.5 17.5t17.5 6.5t17 -7l79 -71q7 -7 7 -17t-7 -17zM12 296h92l80 -86l38 41l-90 97q-4 4 -9 4h-111q-5 0 -8.5 -3.5t-3.5 -8.5v-32q0 -5 3.5 -8.5t8.5 -3.5zM505 338
l-79 71q-7 7 -17 7t-17.5 -7t-7.5 -17v-40h-31q-5 0 -9 -4l-240 -260h-92q-5 0 -8.5 -3.5t-3.5 -8.5v-32q0 -5 3.5 -8.5t8.5 -3.5h111q5 0 9 4l240 260h12v-48q0 -10 7.5 -17t17.5 -7t17 7l79 73q7 7 7 17t-7 17z" />
    <glyph glyph-name="comment" unicode="&#xf075;" 
d="M256 416q-70 0 -128.5 -28t-93 -75.5t-34.5 -104.5q0 -70 53 -126q-9 -25 -29 -52q-13 -18 -17.5 -22.5t-6 -11.5t1.5 -13.5t9 -10.5t13 -4q74 0 139 46q46 -14 93 -14q70 0 128.5 28t93 75.5t34.5 104.5t-34.5 104.5t-93 75.5t-128.5 28zM256 48q-40 0 -78 12l-23 7
l-20 -13q-27 -20 -57 -30q12 21 20 41l10 28l-20 22q-40 42 -40 93q0 43 28 80t76 58.5t104 21.5t104 -21.5t76 -58.5t28 -80t-28 -80t-76 -58.5t-104 -21.5z" />
    <glyph glyph-name="chevron-up" unicode="&#xf077;" horiz-adv-x="448" 
d="M6 89l20 -20q3 -4 8 -4t9 4l181 181l181 -181q4 -4 9 -4t8 4l20 20q3 3 3 8t-3 9l-210 209q-3 4 -8 4t-8 -4l-210 -209q-3 -4 -3 -9t3 -8z" />
    <glyph glyph-name="chevron-down" unicode="&#xf078;" horiz-adv-x="448" 
d="M442 281l-20 20q-3 3 -8 3t-9 -3l-181 -181l-181 181q-4 3 -9 3t-8 -3l-20 -20q-3 -4 -3 -9t3 -8l210 -210q3 -3 8 -3t9 3l209 210q3 3 3 8t-3 9z" />
    <glyph glyph-name="retweet" unicode="&#xf079;" horiz-adv-x="640" 
d="M624 95l-104 -104q-3 -4 -8 -4t-8 4l-104 104q-4 3 -4 8t4 9l16 16q4 4 9 4t8 -4l55 -55v223h-204q-5 0 -8 4l-24 24q-6 5 -3 12.5t11 7.5h252q10 0 17 -7t7 -17v-247l55 55q3 4 8 4t9 -4l16 -16q4 -4 4 -9t-4 -8zM364 84q-3 4 -8 4h-204v223l55 -55q3 -4 8 -4t9 4l16 16
q4 4 4 9t-4 8l-104 104q-3 4 -8 4t-8 -4l-104 -104q-4 -3 -4 -8t4 -9l16 -16q4 -4 9 -4t8 4l55 55v-247q0 -10 7 -17t17 -7h252q8 0 11 7.5t-3 12.5z" />
    <glyph glyph-name="shopping-cart" unicode="&#xf07a;" horiz-adv-x="576" 
d="M552 384h-408l-8 45q-2 8 -8.5 13.5t-15.5 5.5h-100q-5 0 -8.5 -3.5t-3.5 -8.5v-24q0 -5 3.5 -8.5t8.5 -3.5h80l70 -356q-18 -18 -18 -44.5t18.5 -45t45.5 -18.5t45.5 18.5t18.5 45.5q0 17 -9 32h146q-9 -15 -9 -32q0 -27 18.5 -45.5t45.5 -18.5t45.5 18.5t18.5 45.5
t-20 46l1 5q3 11 -4.5 20t-18.5 9h-282l-10 48h313q8 0 14.5 5.5t8.5 13.5l45 208q3 11 -4.5 20t-18.5 9zM208 -24q-10 0 -17 7t-7 17t7 17t17 7t17 -7t7 -17t-7 -17t-17 -7zM464 -24q-10 0 -17 7t-7 17t7 17t17 7t17 -7t7 -17t-7 -17t-17 -7zM487 176h-302l-31 160h368z
" />
    <glyph glyph-name="folder" unicode="&#xf07b;" 
d="M464 320h-192l-55 55q-9 9 -22 9h-147q-20 0 -34 -14t-14 -34v-288q0 -20 14 -34t34 -14h416q20 0 34 14t14 34v224q0 20 -14 34t-34 14zM464 48h-416v288h140l55 -55q9 -9 22 -9h199v-224z" />
    <glyph glyph-name="folder-open" unicode="&#xf07c;" horiz-adv-x="576" 
d="M528 224h-48v48q0 20 -14 34t-34 14h-160l-64 64h-160q-20 0 -34 -14t-14 -34v-288q0 -20 14 -34t34 -14h400q12 0 23 6t18 17l80 128q9 15 6 32.5t-16 29t-31 11.5zM54 336h134l64 -64h174q2 0 4 -2t2 -4v-42h-280q-13 0 -24 -6t-17 -17l-63 -104v233q0 2 2 4t4 2z
M448 48h-376l77 128h379z" />
    <glyph glyph-name="camera-retro" unicode="&#xf083;" 
d="M154 368h-116q-2 0 -4 2t-2 4v36q0 2 2 4t4 2h116q2 0 4 -2t2 -4v-36q0 -2 -2 -4t-4 -2zM512 368v-352q0 -20 -14 -34t-34 -14h-416q-20 0 -34 14t-14 34v288q0 20 14 34t34 14h136l34 45q14 19 38 19h208q20 0 34 -14t14 -34zM464 304h-416v-288h416v288zM464 368h-208
l-12 -16h220v16zM376 160q0 33 -16 60.5t-43.5 43.5t-60.5 16t-60.5 -16t-43.5 -43.5t-16 -60.5t16 -60.5t43.5 -43.5t60.5 -16t60.5 16t43.5 43.5t16 60.5zM328 160q0 -30 -21 -51t-51 -21t-51 21t-21 51t21 51t51 21t51 -21t21 -51zM232 160q0 10 7 17t17 7q7 0 11.5 4.5
t4.5 11.5t-4.5 11.5t-11.5 4.5q-23 0 -39.5 -16.5t-16.5 -39.5q0 -7 4.5 -11.5t11.5 -4.5t11.5 4.5t4.5 11.5z" />
    <glyph glyph-name="key" unicode="&#xf084;" 
d="M320 400q39 0 72 -19.5t52.5 -52.5t19.5 -72t-19.5 -72t-52.5 -52.5t-72 -19.5q-28 0 -54 10l-42 -42h-32v-48h-48v-48h-96v96l134 134q-6 21 -6 42q0 39 19.5 72t52.5 52.5t72 19.5zM320 448q-52 0 -96 -26t-70 -70t-26 -96q0 -13 2 -26l-123 -123q-7 -7 -7 -17v-130
q0 -10 7 -17t17 -7h144q10 0 17 7t7 17v24h24q10 0 17 7t7 17v20l40 40q20 -4 40 -4q52 0 96 26t70 70t26 96t-26 96t-70 70t-96 26zM320 304q0 -20 14 -34t34 -14t34 14t14 34t-14 34t-34 14t-34 -14t-14 -34z" />
    <glyph glyph-name="cogs" unicode="&#xf085;" horiz-adv-x="640" 
d="M217 -30q-28 0 -57 7q-8 2 -13 8.5t-5 15.5v31q-15 7 -27 16l-27 -15q-7 -5 -15.5 -3.5t-14.5 7.5q-24 26 -37 48q-9 17 -20 50q-2 9 1 17t10 12l27 15q-1 15 0 31l-27 15q-7 4 -10.5 12t-0.5 16q11 33 20 51q13 21 37 48q6 6 14.5 7t15.5 -3l27 -15q12 9 27 15v31
q0 8 5 14.5t13 8.5q33 8 57 8t57 -8q8 -2 13.5 -8.5t5.5 -14.5v-31q14 -6 27 -15l26 15q7 4 15.5 3t14.5 -7q22 -24 35 -45q16 -27 22 -56q1 -7 -2 -14t-9 -11l-27 -16q1 -16 0 -31l27 -17q6 -4 9 -11t2 -14q-6 -28 -22 -54q-13 -22 -35 -46q-6 -6 -14.5 -7.5t-15.5 2.5
l-26 16q-13 -9 -27 -16v-32q0 -8 -5 -14.5t-13 -8.5q-30 -7 -58 -7zM190 21q27 -5 55 0v44l16 6q23 8 41 24l13 11l39 -22q17 21 27 47l-39 23l4 16q4 24 0 48l-4 17l39 22q-10 26 -27 48l-39 -22l-13 11q-19 16 -41 24l-16 5v45q-28 4 -56 0v-45l-15 -5q-24 -9 -42 -24
l-13 -11l-38 22q-18 -22 -28 -48l39 -22l-3 -17q-5 -24 0 -48l3 -16l-39 -23q10 -26 27 -47l39 22l13 -11q19 -16 42 -24l16 -6v-44zM217 106q-37 0 -63 25.5t-26 62t26 62.5t62.5 26t62.5 -25.5t26 -62.5t-26 -62.5t-62 -25.5zM217 234q-17 0 -29 -11.5t-12 -28.5t12 -28.5
t28.5 -11.5t28.5 11.5t12 28.5t-12 28.5t-28 11.5zM639 363q-1 4 -4.5 7t-7.5 3h-16q-6 15 -16 27l8 14q2 4 1.5 8t-4.5 7q-14 12 -31 18q-4 2 -8.5 0.5t-6.5 -5.5l-8 -14q-15 3 -31 0l-8 14q-2 4 -6 5.5t-8 -0.5q-17 -6 -32 -18q-3 -3 -4 -7t2 -8l8 -14q-11 -12 -16 -27
h-16q-4 0 -7.5 -3t-4.5 -7q-3 -18 0 -36q1 -5 4.5 -7.5t7.5 -2.5h16q5 -15 16 -27l-8 -14q-3 -4 -2 -8.5t4 -6.5q15 -12 32 -19q4 -1 8 0.5t6 5.5l8 14q16 -3 31 0l8 -14q3 -4 7 -5.5t8 -0.5q17 7 31 19q4 2 4.5 6.5t-1.5 8.5l-8 14q10 12 16 27h16q4 0 7.5 2.5t4.5 7.5
q2 18 -1 36h1zM531 313q-14 0 -23 9.5t-9 22.5t9 22.5t22.5 9.5t23 -9.5t9.5 -22.5t-9.5 -22.5t-22.5 -9.5zM639 57q-1 5 -4.5 7.5t-7.5 2.5h-16q-6 15 -16 27l8 14q2 4 1.5 8.5t-4.5 6.5q-14 12 -31 19q-4 1 -8.5 -0.5t-6.5 -5.5l-8 -14q-15 3 -31 0l-8 14q-2 4 -6 5.5
t-8 0.5q-18 -7 -32 -19q-3 -2 -4 -6.5t2 -8.5l8 -14q-11 -12 -16 -27h-16q-5 0 -8 -2.5t-4 -7.5q-3 -18 0 -36q1 -4 4 -7t8 -3h16q5 -15 15 -27l-7 -14q-3 -4 -2 -8t4 -7q14 -12 32 -18q4 -2 8 -0.5t6 5.5l8 14q16 -3 31 0l8 -14q2 -4 6.5 -5.5t8.5 0.5q17 6 31 18
q4 3 4.5 7t-1.5 8l-8 14q10 12 16 27h16q4 0 7.5 3t4.5 7q3 19 0 36zM531 7q-14 0 -23 9.5t-9 22.5t9 22.5t22.5 9.5t23 -9.5t9.5 -22.5t-9.5 -22.5t-22.5 -9.5z" />
    <glyph glyph-name="comments" unicode="&#xf086;" horiz-adv-x="576" 
d="M532 62q44 43 44 98q0 39 -23 73t-63.5 56.5t-89.5 28.5q-24 44 -76 71t-116 27q-57 0 -104.5 -21.5t-75.5 -58.5t-28 -80q0 -55 44 -98q-10 -19 -24 -39q-9 -12 -13.5 -16.5t-6 -11.5t1.5 -13t8.5 -10t12.5 -4q66 0 125 39q14 -3 29 -5q24 -44 75.5 -71t115.5 -27
q30 0 60 7q60 -39 125 -39q7 0 12.5 4t8.5 10t2 13t-6 12q-3 2 -14 16q-14 20 -24 39zM139 154l-17 -11q-21 -14 -43 -21l8 14l16 32l-25 24q-30 29 -30 64q0 30 22 55.5t58.5 41t79.5 15.5t79.5 -15.5t58.5 -41t22 -55.5t-22 -55.5t-58.5 -41t-79.5 -15.5q-25 0 -49 6z
M498 96l-24 -24l15 -31l8 -15q-22 7 -43 21l-17 11l-20 -4q-24 -6 -49 -6q-40 0 -74.5 13.5t-56.5 36.5q50 5 91 27.5t64.5 56.5t23.5 74l-1 10q49 -11 81 -40.5t32 -65t-30 -64.5z" />
    <glyph glyph-name="star-half" unicode="&#xf089;" horiz-adv-x="576" 
d="M288 63l-124 -66l23 139l-100 98l139 20l62 126v68q-9 0 -16.5 -4.5t-12.5 -13.5l-65 -132l-146 -21q-13 -2 -20.5 -12t-7 -22t9.5 -21l106 -103l-25 -145q-2 -13 4.5 -23t18.5 -13.5t23 2.5l131 68v55z" />
    <glyph glyph-name="thumbtack" unicode="&#xf08d;" horiz-adv-x="384" 
d="M306 261l-5 43h27q10 0 17 7t7 17v96q0 10 -7 17t-17 7h-272q-10 0 -17 -7t-7 -17v-96q0 -10 7 -17t17 -7h27l-5 -43q-37 -25 -57.5 -61.5t-20.5 -79.5q0 -10 7 -17t17 -7h144v-104v-3l16 -48q2 -5 8 -5t8 5l16 48v3v104h144q10 0 17 7t7 17q0 43 -20.5 79.5t-57.5 61.5z
M51 144q6 28 25 51t46 37l16 120h-58v48h224v-48h-58l16 -120q27 -14 46 -37t25 -51h-282z" />
    <glyph glyph-name="external-link" unicode="&#xf08e;" horiz-adv-x="576" 
d="M576 434v-164q0 -6 -4.5 -10t-10.5 -4h-33q-6 0 -10 4.5t-4 10.5l2 73l-2 2l-278 -278q-4 -4 -9 -4t-8 4l-23 23q-4 3 -4 8t4 9l278 278l-2 2l-73 -2q-6 0 -10.5 4t-4.5 10v33q0 6 4 10.5t10 4.5h164q6 0 10 -4t4 -10zM428 214l-24 -24q-4 -3 -4 -8v-192q0 -2 -2 -4
t-4 -2h-340q-2 0 -4 2t-2 4v340q0 2 2 4t4 2h302q8 0 11 7.5t-3 12.5l-24 24q-3 4 -8 4h-284q-20 0 -34 -14t-14 -34v-352q0 -20 14 -34t34 -14h352q20 0 34 14t14 34v222q0 8 -7.5 11t-12.5 -3z" />
    <glyph glyph-name="sign-in" unicode="&#xf090;" 
d="M416 0h-84q-5 0 -8.5 3.5t-3.5 8.5v24q0 5 3.5 8.5t8.5 3.5h84q20 0 34 14t14 34v192q0 20 -14 34t-34 14h-84q-5 0 -8.5 3.5t-3.5 8.5v24q0 5 3.5 8.5t8.5 3.5h84q40 0 68 -28t28 -68v-192q0 -40 -28 -68t-68 -28zM167 365l-19 -20q-4 -4 -4 -9t4 -8l113 -110h-249
q-5 0 -8.5 -3.5t-3.5 -8.5v-28q0 -5 3.5 -8.5t8.5 -3.5h249l-113 -110q-4 -3 -4 -8t3 -9l20 -19q4 -4 9 -4t8 4l165 164q3 3 3 8t-3 9l-165 164q-3 3 -8 3t-9 -4v1z" />
    <glyph glyph-name="upload" unicode="&#xf093;" horiz-adv-x="576" 
d="M528 160h-144v32h64q21 0 34.5 14t14 33.5t-14.5 34.5l-160 160q-14 14 -34 14t-34 -14l-160 -160q-15 -15 -14.5 -34.5t14 -33.5t34.5 -14h64v-32h-144q-20 0 -34 -14t-14 -34v-128q0 -20 14 -34t34 -14h480q20 0 34 14t14 34v128q0 20 -14 34t-34 14zM128 240l160 160
l160 -160h-112v-160h-96v160h-112zM528 -16h-480v128h144v-32q0 -20 14 -34t34 -14h96q20 0 34 14t14 34v32h144v-128zM488 48q0 -10 -7 -17t-17 -7t-17 7t-7 17t7 17t17 7t17 -7t7 -17z" />
    <glyph glyph-name="phone-square" unicode="&#xf098;" horiz-adv-x="448" 
d="M400 416h-352q-20 0 -34 -14t-14 -34v-352q0 -20 14 -34t34 -14h352q20 0 34 14t14 34v352q0 20 -14 34t-34 14zM394 16h-340q-2 0 -4 2t-2 4v340q0 2 2 4t4 2h340q2 0 4 -2t2 -4v-340q0 -2 -2 -4t-4 -2zM352 296q0 -63 -31 -116.5t-84.5 -84.5t-116.5 -31q-4 0 -7.5 2.5
t-4.5 6.5l-12 52q-1 5 1 8.5t6 5.5l56 24q4 2 8 1t6 -4l25 -31q29 14 52 37t37 52l-31 25q-3 2 -4 6t1 8l24 56q2 4 5.5 6t8.5 1l52 -12q4 -1 6.5 -4.5t2.5 -7.5z" />
    <glyph glyph-name="unlock" unicode="&#xf09c;" horiz-adv-x="448" 
d="M400 208h-272v95q0 40 27.5 68.5t67.5 28.5t68.5 -28t28.5 -68v-24q0 -10 7 -17t17 -7t17 7t7 17v23q0 39 -19.5 72.5t-52.5 53t-72 19.5t-72 -19.5t-52.5 -52.5t-19.5 -72v-96h-32q-20 0 -34 -14t-14 -34v-176q0 -20 14 -34t34 -14h352q20 0 34 14t14 34v176
q0 20 -14 34t-34 14zM400 -16h-352v176h352v-176z" />
    <glyph glyph-name="credit-card" unicode="&#xf09d;" horiz-adv-x="576" 
d="M528 416h-480q-20 0 -34 -14t-14 -34v-352q0 -20 14 -34t34 -14h480q20 0 34 14t14 34v352q0 20 -14 34t-34 14zM54 368h468q2 0 4 -2t2 -4v-42h-480v42q0 2 2 4t4 2zM522 16h-468q-2 0 -4 2t-2 4v170h480v-170q0 -2 -2 -4t-4 -2zM192 116v-40q0 -5 -3.5 -8.5t-8.5 -3.5
h-72q-5 0 -8.5 3.5t-3.5 8.5v40q0 5 3.5 8.5t8.5 3.5h72q5 0 8.5 -3.5t3.5 -8.5zM384 116v-40q0 -5 -3.5 -8.5t-8.5 -3.5h-136q-5 0 -8.5 3.5t-3.5 8.5v40q0 5 3.5 8.5t8.5 3.5h136q5 0 8.5 -3.5t3.5 -8.5z" />
    <glyph glyph-name="rss" unicode="&#xf09e;" horiz-adv-x="448" 
d="M80 80q13 0 22.5 -9.5t9.5 -22.5t-9.5 -22.5t-22.5 -9.5t-22.5 9.5t-9.5 22.5t9.5 22.5t22.5 9.5zM80 128q-33 0 -56.5 -23.5t-23.5 -56.5t23.5 -56.5t56.5 -23.5t56.5 23.5t23.5 56.5t-23.5 56.5t-56.5 23.5zM448 -20q-3 117 -63 218q-58 97 -156 155q-100 60 -217 63
q-5 0 -8.5 -3.5t-3.5 -8.5v-24q0 -5 3.5 -8.5t8.5 -3.5q104 -3 193 -56q87 -52 139 -139q53 -89 56 -193q0 -5 3.5 -8.5t8.5 -3.5h24q5 0 8.5 3.5t3.5 8.5zM312 -20q-3 81 -44 148t-108.5 108t-147.5 44q-5 0 -8.5 -3.5t-3.5 -8.5v-24q0 -5 3.5 -8.5t7.5 -3.5
q68 -3 124.5 -37.5t91 -91t37.5 -124.5q0 -4 3.5 -7.5t8.5 -3.5h24q5 0 8.5 3.5t3.5 8.5z" />
    <glyph glyph-name="hdd" unicode="&#xf0a0;" horiz-adv-x="576" 
d="M567 212l-105 151q-6 10 -16.5 15.5t-22.5 5.5h-270q-12 0 -22.5 -5.5t-16.5 -15.5l-105 -151q-9 -12 -9 -27v-137q0 -20 14 -34t34 -14h480q20 0 34 14t14 34v137q0 15 -9 27zM153 336h270l78 -112h-426zM528 48h-480v128h480v-128zM496 112q0 -13 -9.5 -22.5
t-22.5 -9.5t-22.5 9.5t-9.5 22.5t9.5 22.5t22.5 9.5t22.5 -9.5t9.5 -22.5zM400 112q0 -13 -9.5 -22.5t-22.5 -9.5t-22.5 9.5t-9.5 22.5t9.5 22.5t22.5 9.5t22.5 -9.5t9.5 -22.5z" />
    <glyph glyph-name="bullhorn" unicode="&#xf0a1;" horiz-adv-x="576" 
d="M544 263v153q0 10 -7 19q-9 13 -25 13v0q-11 0 -20 -7l-85 -68q-32 -26 -71 -39.5t-80 -13.5h-192q-27 0 -45.5 -18.5t-18.5 -45.5v-96q0 -27 18.5 -45.5t45.5 -18.5v-32q0 -58 25 -111q4 -8 11.5 -12.5t16.5 -4.5h107q12 0 21 8.5t10.5 20.5t-5.5 22q-26 34 -26 77
q0 16 4 32h28q41 0 80 -13.5t71 -39.5l85 -68q9 -7 20 -7q16 0 25 13q7 9 7 19v153q15 8 23.5 23t8.5 32t-8.5 32t-23.5 23zM128 -16q-16 38 -16 80q0 13 2 30v2h65q-3 -18 -3 -32q0 -43 19 -80h-67zM240 144h-176q-7 0 -11.5 4.5t-4.5 11.5v96q0 7 4.5 11.5t11.5 4.5h176
v-128zM496 33l-59 48q-65 52 -149 61v132q84 9 149 61l59 48v-350z" />
    <glyph glyph-name="arrow-circle-left" unicode="&#xf0a8;" 
d="M504 192q0 67 -33.5 124t-90.5 90.5t-124 33.5t-124 -33.5t-90.5 -90.5t-33.5 -124t33.5 -124t90.5 -90.5t124 -33.5t124 33.5t90.5 90.5t33.5 124zM56 192q0 54 27 100t73 73t100 27t100 -27t73 -73t27 -100t-27 -100t-73 -73t-100 -27t-100 27t-73 73t-27 100zM245 62
l-121 122q-4 3 -4 8t4 9l121 121q4 3 9 3t8 -3l20 -20q3 -3 3 -8t-4 -9l-70 -67h161q5 0 8.5 -3.5t3.5 -8.5v-28q0 -5 -3.5 -8.5t-8.5 -3.5h-161l71 -67q3 -4 3 -9t-3 -8l-20 -20q-3 -3 -8 -3t-9 3z" />
    <glyph glyph-name="arrow-circle-right" unicode="&#xf0a9;" 
d="M8 192q0 -67 33.5 -124t90.5 -90.5t124 -33.5t124 33.5t90.5 90.5t33.5 124t-33.5 124t-90.5 90.5t-124 33.5t-124 -33.5t-90.5 -90.5t-33.5 -124zM456 192q0 -54 -27 -100t-73 -73t-100 -27t-100 27t-73 73t-27 100t27 100t73 73t100 27t100 -27t73 -73t27 -100z
M267 322l121 -121q4 -4 4 -9t-4 -9l-121 -121q-4 -3 -9 -3t-8 3l-20 20q-3 3 -3 8t3 9l71 67h-161q-5 0 -8.5 3.5t-3.5 8.5v28q0 5 3.5 8.5t8.5 3.5h161l-70 67q-4 4 -4 9t3 8l20 20q3 3 8 3t9 -3z" />
    <glyph glyph-name="arrow-circle-up" unicode="&#xf0aa;" 
d="M256 -56q67 0 124 33.5t90.5 90.5t33.5 124t-33.5 124t-90.5 90.5t-124 33.5t-124 -33.5t-90.5 -90.5t-33.5 -124t33.5 -124t90.5 -90.5t124 -33.5zM256 392q54 0 100 -27t73 -73t27 -100t-27 -100t-73 -73t-100 -27t-100 27t-73 73t-27 100t27 100t73 73t100 27z
M126 203l122 121q3 4 8 4t9 -4l121 -121q3 -4 3 -9t-3 -8l-20 -20q-3 -3 -8 -3t-9 3l-67 71v-161q0 -5 -3.5 -8.5t-8.5 -3.5h-28q-5 0 -8.5 3.5t-3.5 8.5v161l-67 -70q-4 -4 -9 -4t-8 3l-20 20q-3 3 -3 8t3 9z" />
    <glyph glyph-name="arrow-circle-down" unicode="&#xf0ab;" 
d="M256 440q-67 0 -124 -33.5t-90.5 -90.5t-33.5 -124t33.5 -124t90.5 -90.5t124 -33.5t124 33.5t90.5 90.5t33.5 124t-33.5 124t-90.5 90.5t-124 33.5zM256 -8q-54 0 -100 27t-73 73t-27 100t27 100t73 73t100 27t100 -27t73 -73t27 -100t-27 -100t-73 -73t-100 -27z
M386 198l-20 20q-3 3 -8 3t-9 -3l-67 -71v161q0 5 -3.5 8.5t-8.5 3.5h-28q-5 0 -8.5 -3.5t-3.5 -8.5v-161l-67 71q-4 3 -9 3t-8 -3l-20 -20q-3 -3 -3 -8t3 -9l122 -121q3 -4 8 -4t9 4l121 121q3 4 3 9t-3 8z" />
    <glyph glyph-name="wrench" unicode="&#xf0ad;" 
d="M507 331q-2 9 -8.5 15.5t-15.5 9t-18 0.5t-16 -9l-59 -59l-32 6l-5 32l58 59q7 6 9.5 15.5t0 18.5t-9.5 15.5t-16 8.5q-40 10 -79 -0.5t-67.5 -39t-39 -67t-1.5 -77.5l-184 -183q-24 -24 -24 -58t24 -58t58 -24t58 24l183 183q39 -9 77.5 2t66.5 39.5t39 68t1 78.5z
M433 218q-21 -21 -50.5 -28t-58.5 3l-14 5l-204 -204q-10 -10 -24 -10t-24 10t-10 24t10 24l204 204l-5 14q-9 29 -2.5 58.5t27.5 50.5q32 31 75 31h1l-57 -57l15 -91l91 -15l57 57q0 -21 -8 -40.5t-23 -35.5zM88 40q-7 0 -11.5 -4.5t-4.5 -11.5t4.5 -11.5t11.5 -4.5
t11.5 4.5t4.5 11.5t-4.5 11.5t-11.5 4.5z" />
    <glyph glyph-name="filter" unicode="&#xf0b0;" 
d="M464 448h-416q-21 0 -34.5 -14t-13.5 -33.5t14 -34.5l162 -162v-172q0 -23 19 -40l64 -47q15 -11 33.5 -9t31 15t12.5 32v221l162 162q14 15 14 34.5t-13.5 33.5t-34.5 14zM288 224v-240l-64 48v192l-176 176h416z" />
    <glyph glyph-name="briefcase" unicode="&#xf0b1;" 
d="M464 320h-80v48q0 20 -14 34t-34 14h-160q-20 0 -34 -14t-14 -34v-48h-80q-20 0 -34 -14t-14 -34v-256q0 -20 14 -34t34 -14h416q20 0 34 14t14 34v256q0 20 -14 34t-34 14zM176 368h160v-48h-160v48zM54 272h404q2 0 4 -2t2 -4v-74h-416v74q0 2 2 4t4 2zM458 16h-404
q-2 0 -4 2t-2 4v122h144v-24q0 -10 7 -17t17 -7h80q10 0 17 7t7 17v24h144v-122q0 -2 -2 -4t-4 -2z" />
    <glyph glyph-name="users" unicode="&#xf0c0;" horiz-adv-x="640" 
d="M544 224q33 0 56.5 23.5t23.5 56.5t-23.5 56.5t-56.5 23.5t-56.5 -23.5t-23.5 -56.5t23.5 -56.5t56.5 -23.5zM544 336q13 0 22.5 -9.5t9.5 -22.5t-9.5 -22.5t-22.5 -9.5t-22.5 9.5t-9.5 22.5t9.5 22.5t22.5 9.5zM96 224q33 0 56.5 23.5t23.5 56.5t-23.5 56.5t-56.5 23.5
t-56.5 -23.5t-23.5 -56.5t23.5 -56.5t56.5 -23.5zM96 336q13 0 22.5 -9.5t9.5 -22.5t-9.5 -22.5t-22.5 -9.5t-22.5 9.5t-9.5 22.5t9.5 22.5t22.5 9.5zM492 125q-20 30 -55.5 41.5t-71.5 0.5q-23 -7 -45.5 -7t-44.5 7q-36 11 -71.5 -0.5t-55.5 -41t-20 -64.5v-45
q0 -20 14 -34t34 -14h288q20 0 34 14t14 34v45q0 35 -20 64zM464 16h-288v45q0 27 19 46.5t46 20.5q39 -16 79 -16t79 16q27 -1 46 -20.5t19 -46.5v-45zM556 192h-24q-26 0 -47 -14q21 -16 35 -36q7 2 12 2h24q15 0 25.5 -10.5t10.5 -25.5q0 -10 7 -17t17 -7t17 7t7 17
q0 35 -24.5 59.5t-59.5 24.5zM320 192q30 0 56 15t41 41t15 56t-15 56t-41 41t-56 15t-56 -15t-41 -41t-15 -56t15 -56t41 -41t56 -15zM320 368q26 0 45 -19t19 -45t-19 -45t-45 -19t-45 19t-19 45t19 45t45 19zM155 178q-21 14 -47 14h-24q-35 0 -59.5 -24.5t-24.5 -59.5
q0 -10 7 -17t17 -7t17 7t7 17q0 15 10.5 25.5t25.5 10.5h24q6 0 12 -3q14 21 35 37z" />
    <glyph glyph-name="cloud" unicode="&#xf0c2;" horiz-adv-x="640" 
d="M544 248q-3 44 -35.5 74t-76.5 30q-11 0 -22 -2q-25 30 -61 48t-77 18q-63 0 -111.5 -39.5t-60.5 -100.5q-45 -18 -72.5 -58.5t-27.5 -89.5q0 -43 21.5 -80t58.5 -58.5t80 -21.5h336q39 0 72 19.5t52.5 52.5t19.5 72q0 46 -26.5 83.5t-69.5 52.5zM496 16h-336
q-30 0 -56 15t-41 41t-15 56q0 42 27.5 73.5t68.5 37.5v1q0 35 17 64.5t46.5 46.5t64.5 17q40 0 72 -22t46 -57q18 15 42 15q26 0 45 -19t19 -45q0 -17 -9 -32h9q40 0 68 -28t28 -68t-28 -68t-68 -28z" />
    <glyph glyph-name="copy" unicode="&#xf0c5;" horiz-adv-x="448" 
d="M434 382l-52 52q-14 14 -34 14h-172q-20 0 -34 -14t-14 -34v-48h-80q-20 0 -34 -14t-14 -34v-320q0 -20 14 -34t34 -14h224q20 0 34 14t14 34v48h80q20 0 34 14t14 34v268q0 20 -14 34zM266 -16h-212q-2 0 -4 2t-2 4v308q0 2 2 4t4 2h74v-224q0 -20 14 -34t34 -14h96v-42
q0 -2 -2 -4t-4 -2zM394 80h-212q-2 0 -4 2t-2 4v308q0 2 2 4t4 2h106v-88q0 -10 7 -17t17 -7h88v-202q0 -2 -2 -4t-4 -2zM400 336h-64v64h10q2 0 4 -2l48 -48q2 -2 2 -4v-10z" />
    <glyph glyph-name="save" unicode="&#xf0c7;" horiz-adv-x="448" 
d="M434 318l-84 84q-14 14 -34 14h-268q-20 0 -34 -14t-14 -34v-352q0 -20 14 -34t34 -14h352q20 0 34 14t14 34v268q0 20 -14 34zM272 368v-80h-128v80h128zM394 16h-340q-2 0 -4 2t-2 4v340q0 2 2 4t4 2h42v-104q0 -10 7 -17t17 -7h176q10 0 17 7t7 17v100l78 -78
q2 -2 2 -4v-260q0 -2 -2 -4t-4 -2zM224 216q-36 0 -62 -26t-26 -62t26 -62t62 -26t62 26t26 62t-26 62t-62 26zM224 88q-17 0 -28.5 11.5t-11.5 28.5t11.5 28.5t28.5 11.5t28.5 -11.5t11.5 -28.5t-11.5 -28.5t-28.5 -11.5z" />
    <glyph glyph-name="truck" unicode="&#xf0d1;" horiz-adv-x="640" 
d="M624 80h-16v116q0 30 -21 51l-84 84q-21 21 -51 21h-36v40q0 23 -16.5 39.5t-39.5 16.5h-304q-23 0 -39.5 -16.5t-16.5 -39.5v-304q0 -23 16.5 -39.5t39.5 -16.5h8q0 -40 28 -68t68 -28t68 28t28 68h128q0 -40 28 -68t68 -28t68 28t28 68h48q7 0 11.5 4.5t4.5 11.5v16
q0 7 -4.5 11.5t-11.5 4.5zM160 -16q-20 0 -34 14t-14 34t14 34t34 14t34 -14t14 -34t-14 -34t-34 -14zM368 80h-125q-13 22 -35 35t-48 13t-48 -13t-35 -35h-21q-3 0 -5.5 2.5t-2.5 5.5v304q0 3 2.5 5.5t5.5 2.5h304q3 0 5.5 -2.5t2.5 -5.5v-312zM416 304h36q10 0 17 -7
l73 -73h-126v80zM480 -16q-20 0 -34 14t-14 34t14 34t34 14t34 -14t14 -34t-14 -34t-34 -14zM560 85q-13 20 -34 31.5t-46 11.5q-36 0 -64 -25v73h144v-91z" />
    <glyph glyph-name="caret-down" unicode="&#xf0d7;" horiz-adv-x="320" 
d="M272 288h-224q-20 0 -33.5 -14t-14 -33.5t13.5 -34.5l112 -112q14 -14 34 -14t34 14l112 112q14 15 14 34.5t-13.5 33.5t-34.5 14zM160 128l-112 112h224z" />
    <glyph glyph-name="caret-up" unicode="&#xf0d8;" horiz-adv-x="320" 
d="M48 96h224q21 0 34.5 14t13.5 33.5t-14 34.5l-112 112q-14 14 -34 14t-34 -14l-112 -112q-14 -15 -14 -34.5t13.5 -33.5t34.5 -14zM160 256l112 -112h-224z" />
    <glyph glyph-name="caret-left" unicode="&#xf0d9;" horiz-adv-x="224" 
d="M224 80v224q0 21 -14 34.5t-33.5 13.5t-34.5 -14l-112 -112q-14 -14 -14 -34t14 -34l112 -112q15 -14 34.5 -14t33.5 13.5t14 34.5zM64 192l112 112v-224z" />
    <glyph glyph-name="caret-right" unicode="&#xf0da;" horiz-adv-x="224" 
d="M0 304v-224q0 -21 14 -34.5t33.5 -13.5t34.5 14l112 112q14 14 14 34t-14 34l-112 112q-15 14 -34.5 14t-33.5 -13.5t-14 -34.5zM160 192l-112 -112v224z" />
    <glyph glyph-name="sort" unicode="&#xf0dc;" horiz-adv-x="320" 
d="M272 160h-224q-20 0 -33.5 -14t-14 -33.5t13.5 -34.5l112 -112q14 -14 34 -14t34 14l112 112q14 15 14 34.5t-13.5 33.5t-34.5 14zM160 0l-112 112h224zM48 224h224q20 0 33.5 14t14 33.5t-13.5 34.5l-112 112q-14 14 -34 14t-34 -14l-112 -112q-14 -15 -14 -34.5
t13.5 -33.5t34.5 -14zM160 384l112 -112h-224z" />
    <glyph glyph-name="sort-down" unicode="&#xf0dd;" horiz-adv-x="320" 
d="M272 160h-224q-20 0 -33.5 -14t-14 -33.5t13.5 -34.5l112 -112q14 -14 34 -14t34 14l112 112q14 15 14 34.5t-13.5 33.5t-34.5 14zM160 0l-112 112h224z" />
    <glyph glyph-name="sort-up" unicode="&#xf0de;" horiz-adv-x="320" 
d="M48 224h224q20 0 33.5 14t14 33.5t-13.5 34.5l-112 112q-14 14 -34 14t-34 -14l-112 -112q-14 -15 -14 -34.5t13.5 -33.5t34.5 -14zM160 384l112 -112h-224z" />
    <glyph glyph-name="envelope" unicode="&#xf0e0;" 
d="M464 384h-416q-20 0 -34 -14t-14 -34v-288q0 -20 14 -34t34 -14h416q20 0 34 14t14 34v288q0 20 -14 34t-34 14zM464 336v-41q-35 -29 -135 -106l-9 -8q-20 -17 -32 -24q-19 -13 -32 -13t-32 13q-12 7 -32 24l-9 8q-100 78 -135 106v41h416zM48 48v186l115 -92
q26 -21 41 -30q28 -16 52 -16t51 16q16 9 41 30l116 92v-186h-416z" />
    <glyph glyph-name="bolt" unicode="&#xf0e7;" horiz-adv-x="384" 
d="M378 280q-6 11 -16.5 17t-23.5 6h-94l29 88q5 21 -8.5 39t-36.5 18h-130q-17 0 -30 -11t-15 -26l-52 -212q-3 -22 11 -38.5t36 -16.5h98l-35 -152q-5 -21 8.5 -38.5t36.5 -17.5q12 0 22.5 6t15.5 16l184 276q6 11 6 23t-6 23zM160 -9l46 201h-158l50 208l127 1l-47 -146
h156z" />
    <glyph glyph-name="lightbulb" unicode="&#xf0eb;" horiz-adv-x="352" 
d="M176 368q-40 0 -68 -28t-28 -68q0 -7 4.5 -11.5t11.5 -4.5t11.5 4.5t4.5 11.5q0 26 19 45t45 19q7 0 11.5 4.5t4.5 11.5t-4.5 11.5t-11.5 4.5zM96 -11q0 -5 3 -9l24 -37q5 -7 14 -7h78q9 0 14 7l24 37q3 4 3 9v43h-160v-43zM176 448q-50 0 -91 -25q-39 -24 -62 -64.5
t-23 -86.5q0 -33 11.5 -62.5t32.5 -53.5q14 -16 28 -40q17 -29 24 -52v0h48q0 7 -2 14q-19 61 -62 110q-32 36 -32 84q0 36 17.5 65.5t47 46t64 16.5t64 -17t46.5 -46.5t17 -64.5q0 -48 -32 -84q-43 -49 -62 -110q-2 -7 -2 -14h48q7 23 24 52q14 24 28 40q21 24 32.5 53.5
t11.5 62.5q0 48 -23.5 88.5t-64 64t-88.5 23.5z" />
    <glyph glyph-name="exchange" unicode="&#xf0ec;" 
d="M508 280l-100 -100q-3 -4 -8 -4t-9 4l-19 19q-4 4 -4 9t4 8l51 48h-411q-5 0 -8.5 3.5t-3.5 8.5v24q0 5 3.5 8.5t8.5 3.5h411l-51 48q-4 3 -4 8t4 9l19 19q4 4 9 4t8 -4l100 -100q4 -3 4 -8t-4 -8zM4 88l100 -100q3 -4 8 -4t9 4l19 19q4 4 4 9t-4 8l-51 48h411
q5 0 8.5 3.5t3.5 8.5v24q0 5 -3.5 8.5t-8.5 3.5h-411l51 48q4 3 4 8t-4 9l-19 19q-4 4 -9 4t-8 -4l-100 -100q-4 -3 -4 -8t4 -8z" />
    <glyph glyph-name="cloud-download" unicode="&#xf0ed;" horiz-adv-x="640" 
d="M544 248q-3 44 -35.5 74t-76.5 30q-11 0 -22 -2q-25 30 -61 48t-77 18q-63 0 -111.5 -39.5t-60.5 -100.5q-45 -18 -72.5 -58.5t-27.5 -89.5q0 -43 21.5 -80t58.5 -58.5t80 -21.5h336q39 0 72 19.5t52.5 52.5t19.5 72q0 46 -26.5 83.5t-69.5 52.5zM496 16h-336
q-30 0 -56 15t-41 41t-15 56q0 42 27.5 73.5t68.5 37.5v1q0 35 17 64.5t46.5 46.5t64.5 17q40 0 72 -22t46 -57q18 15 42 15q26 0 45 -19t19 -45q0 -17 -9 -32h9q40 0 68 -28t28 -68t-28 -68t-68 -28zM384 192q-4 4 -9 4t-8 -4l-55 -55v139q0 5 -3.5 8.5t-8.5 3.5h-24
q-5 0 -8.5 -3.5t-3.5 -8.5v-139l-54 55q-4 4 -9 4t-9 -4l-16 -16q-4 -4 -4 -9t3 -9l105 -103q3 -4 8 -4t8 4l105 104q3 3 3 8t-3 9z" />
    <glyph glyph-name="cloud-upload" unicode="&#xf0ee;" horiz-adv-x="640" 
d="M544 248q-3 44 -35.5 74t-76.5 30q-11 0 -22 -2q-25 30 -61 48t-77 18q-63 0 -111.5 -39.5t-60.5 -100.5q-45 -18 -72.5 -58.5t-27.5 -89.5q0 -43 21.5 -80t58.5 -58.5t80 -21.5h336q39 0 72 19.5t52.5 52.5t19.5 72q0 46 -26.5 83.5t-69.5 52.5zM496 16h-336
q-30 0 -56 15t-41 41t-15 56q0 42 27.5 73.5t68.5 37.5v1q0 35 17 64.5t46.5 46.5t64.5 17q40 0 72 -22t46 -57q18 15 42 15q26 0 45 -19t19 -45q0 -17 -9 -32h9q40 0 68 -28t28 -68t-28 -68t-68 -28zM297 298q-4 3 -9 3t-8 -3l-104 -104q-4 -4 -4 -9t3 -9l17 -16q4 -4 9 -4
t9 4l54 56v-140q0 -5 3.5 -8.5t8.5 -3.5h24q5 0 8.5 3.5t3.5 8.5v140l55 -56q3 -4 8 -4t9 4l17 17q3 3 3 8t-3 9z" />
    <glyph glyph-name="user-md" unicode="&#xf0f0;" horiz-adv-x="448" 
d="M224 160q39 0 72 19.5t52.5 52.5t19.5 72t-19.5 72t-52.5 52.5t-72 19.5t-72 -19.5t-52.5 -52.5t-19.5 -72t19.5 -72t52.5 -52.5t72 -19.5zM224 400q40 0 68 -28t28 -68t-28 -68t-68 -28t-68 28t-28 68t28 68t68 28zM314 144q-15 0 -33 -6q-28 -10 -57 -10t-57 10
q-18 6 -33 6q-36 0 -67 -18t-49 -49t-18 -67v-50q0 -10 7 -17t17 -7t17 7t7 17v50q0 34 23 58.5t57 26.5v-50q-18 -5 -29 -19.5t-11 -33.5q0 -23 16.5 -39.5t39.5 -16.5t39.5 16.5t16.5 39.5q0 19 -11 33.5t-29 19.5v45q33 -10 64 -10t64 10v-36q-21 -6 -34.5 -24t-13.5 -41
v-29q0 -7 5 -11l10 -11q2 -2 5.5 -2t5.5 2l12 12q2 2 2 5.5t-2 5.5l-6 6v25q0 15 11 24.5t26 7.5q12 -2 19.5 -12t7.5 -22v-23l-6 -6q-2 -2 -2 -5.5t2 -5.5l12 -12q2 -2 5 -2t6 2l10 11q5 4 5 11v32q0 22 -13.5 39t-34.5 23v41q33 -2 56.5 -27t23.5 -58v-50q0 -10 7 -17
t17 -7t17 7t7 17v50q0 36 -18 67t-49 49t-67 18zM168 -8q0 -10 -7 -17t-17 -7t-17 7t-7 17t7 17t17 7t17 -7t7 -17z" />
    <glyph glyph-name="stethoscope" unicode="&#xf0f1;" 
d="M120 114v-18q0 -43 22.5 -80t61 -58.5t84.5 -21.5t84.5 21.5t61 58.5t22.5 80v100q24 7 40 28t16 47q0 33 -23 56.5t-56 24.5t-57 -22.5t-24 -57.5q0 -27 15.5 -48t40.5 -28v-100q0 -30 -16 -56t-43.5 -41t-60.5 -15t-60.5 15t-43.5 41t-16 56v18q51 9 85.5 49t34.5 93
v165q0 4 -2.5 7t-6.5 4l-70 16q-5 1 -9 -2t-5 -7l-6 -24q-1 -5 2 -9t7 -5l42 -9v-135q0 -39 -28 -68t-67.5 -29t-68 28t-28.5 68v136l42 9q4 1 7 5t2 9l-6 24q-1 4 -5 7t-9 2l-70 -16q-4 -1 -6.5 -4t-2.5 -8v-164q0 -53 34.5 -93t85.5 -49zM432 304q13 0 22.5 -9.5
t9.5 -22.5t-9.5 -22.5t-22.5 -9.5t-22.5 9.5t-9.5 22.5t9.5 22.5t22.5 9.5z" />
    <glyph glyph-name="suitcase" unicode="&#xf0f2;" 
d="M464 320h-80v48q0 20 -14 34t-34 14h-160q-20 0 -34 -14t-14 -34v-48h-80q-20 0 -34 -14t-14 -34v-256q0 -20 14 -34t34 -14h416q20 0 34 14t14 34v256q0 20 -14 34t-34 14zM176 368h160v-48h-160v48zM48 16v256h80v-256h-80zM176 16v256h160v-256h-160zM464 16h-80v256
h80v-256z" />
    <glyph glyph-name="bell" unicode="&#xf0f3;" horiz-adv-x="448" 
d="M439 86q-1 1 -3 4q-23 24 -34 47q-18 40 -18 103q0 58 -36 101t-92 54v21q0 13 -9.5 22.5t-22.5 9.5t-22.5 -9.5t-9.5 -22.5v-21q-56 -11 -92 -54t-36 -101q0 -63 -18 -103q-11 -23 -34 -47l-3 -4q-9 -10 -9 -22.5t9 -22t23 -9.5h384q14 0 23 9.5t9 22t-9 22.5zM68 80
q44 59 44 159v1q0 30 15 56t41 41t56 15t56 -15t41 -41t15 -56v-1q0 -100 44 -159h-312zM224 -64q26 0 45 18.5t19 45.5h-128q0 -27 19 -45.5t45 -18.5z" />
    <glyph glyph-name="angle-double-left" unicode="&#xf100;" horiz-adv-x="384" 
d="M20 201l147 148q4 3 8.5 3t8.5 -3l20 -20q3 -4 3 -9t-3 -8l-119 -120l119 -120q3 -3 3 -8t-3 -9l-20 -19q-4 -4 -8.5 -4t-8.5 3l-147 149q-3 3 -3 8t3 9zM180 184l147 -148q4 -4 8.5 -4t8.5 3l20 20q3 4 3 9t-3 8l-119 120l119 120q3 3 3 8t-3 9l-20 20q-4 3 -8.5 3
t-8.5 -3l-147 -148q-3 -4 -3 -9t3 -9v1z" />
    <glyph glyph-name="angle-double-right" unicode="&#xf101;" horiz-adv-x="384" 
d="M364 184l-147 -148q-4 -4 -8.5 -4t-8.5 3l-20 20q-3 4 -3 9t3 8l119 120l-119 120q-3 3 -3 8t3 9l20 20q4 3 8.5 3t8.5 -3l147 -148q3 -4 3 -9t-3 -9v1zM204 201l-147 148q-4 3 -8.5 3t-8.5 -3l-20 -20q-3 -4 -3 -9t3 -8l119 -120l-119 -120q-3 -3 -3 -8t3 -9l20 -19
q4 -4 8.5 -4t8.5 3l147 149q3 3 3 8t-3 9z" />
    <glyph glyph-name="angle-double-up" unicode="&#xf102;" horiz-adv-x="320" 
d="M169 364l148 -147q3 -4 3 -8.5t-3 -8.5l-20 -20q-4 -3 -9 -3t-8 3l-120 119l-120 -119q-3 -3 -8 -3t-9 3l-19 20q-4 4 -4 8.5t3 8.5l149 147q3 3 8 3t9 -3zM152 204l-148 -147q-4 -4 -4 -8.5t3 -8.5l20 -20q4 -3 9 -3t8 3l120 119l120 -119q3 -3 8 -3t9 3l20 20
q3 4 3 8.5t-3 8.5l-148 147q-4 3 -9 3t-9 -3h1z" />
    <glyph glyph-name="angle-double-down" unicode="&#xf103;" horiz-adv-x="320" 
d="M152 20l-148 147q-4 4 -4 8.5t3 8.5l20 20q4 3 9 3t8 -3l120 -119l120 119q3 3 8 3t9 -3l20 -20q3 -4 3 -8.5t-3 -8.5l-148 -147q-4 -3 -9 -3t-9 3h1zM169 180l148 147q3 4 3 8.5t-3 8.5l-20 20q-4 3 -9 3t-8 -3l-120 -119l-120 119q-3 3 -8 3t-9 -3l-19 -20
q-4 -4 -4 -8.5t3 -8.5l149 -147q3 -3 8 -3t9 3z" />
    <glyph glyph-name="angle-left" unicode="&#xf104;" horiz-adv-x="192" 
d="M4 201l147 148q4 3 8.5 3t8.5 -3l20 -20q3 -4 3 -9t-3 -8l-119 -120l119 -120q3 -3 3 -8t-3 -9l-20 -19q-4 -4 -8.5 -4t-8.5 3l-147 149q-3 3 -3 8t3 9z" />
    <glyph glyph-name="angle-right" unicode="&#xf105;" horiz-adv-x="192" 
d="M188 184l-147 -148q-4 -4 -8.5 -4t-8.5 3l-20 20q-3 4 -3 9t3 8l119 120l-119 120q-3 3 -3 8t3 9l20 20q4 3 8.5 3t8.5 -3l147 -148q3 -4 3 -9t-3 -9v1z" />
    <glyph glyph-name="angle-up" unicode="&#xf106;" horiz-adv-x="320" 
d="M169 284l148 -147q3 -4 3 -8.5t-3 -8.5l-20 -20q-4 -3 -9 -3t-8 3l-120 119l-120 -119q-3 -3 -8 -3t-9 3l-19 20q-4 4 -4 8.5t3 8.5l149 147q3 3 8 3t9 -3z" />
    <glyph glyph-name="angle-down" unicode="&#xf107;" horiz-adv-x="320" 
d="M152 100l-148 147q-4 4 -4 8.5t3 8.5l20 20q4 3 9 3t8 -3l120 -119l120 119q3 3 8 3t9 -3l20 -20q3 -4 3 -8.5t-3 -8.5l-148 -147q-4 -3 -9 -3t-9 3h1z" />
    <glyph glyph-name="circle" unicode="&#xf111;" 
d="M256 440q-67 0 -124 -33.5t-90.5 -90.5t-33.5 -124t33.5 -124t90.5 -90.5t124 -33.5t124 33.5t90.5 90.5t33.5 124t-33.5 124t-90.5 90.5t-124 33.5zM256 -8q-54 0 -100 27t-73 73t-27 100t27 100t73 73t100 27t100 -27t73 -73t27 -100t-27 -100t-73 -73t-100 -27z" />
    <glyph glyph-name="question" unicode="&#xf128;" horiz-adv-x="384" 
d="M200 448q-56 0 -98.5 -23t-74.5 -70q-14 -21 -10 -46t24 -40l37 -28q17 -13 38 -13q-18 -29 -18 -65v-11q0 -25 16 -43q-26 -29 -26 -69q0 -28 14 -52t38 -38t52 -14t52 14t38 38t14 52q0 40 -26 69q13 15 16 36l6 3q38 22 57 43q33 38 33 92q0 45 -27 84q-26 37 -68 59
t-87 22zM192 -16q-23 0 -39.5 16.5t-16.5 39.5t16.5 39.5t39.5 16.5t39.5 -16.5t16.5 -39.5t-16.5 -39.5t-39.5 -16.5zM238 160v-8q0 -7 -4.5 -11.5t-11.5 -4.5h-60q-7 0 -11.5 4.5t-4.5 11.5v11q0 31 20 52q12 12 41 28l2 1q20 12 27 18q10 10 10 22q0 16 -16.5 26.5
t-37 10.5t-35.5 -10q-11 -8 -28 -29q-4 -5 -10.5 -6t-11.5 3l-37 28q-5 4 -6 10t3 11q24 36 55 53q33 19 78 19q32 0 63 -15.5t50 -41.5q21 -28 21 -60q0 -37 -22 -61q-13 -14 -43 -32q-17 -9 -22 -14q-9 -7 -9 -16z" />
    <glyph glyph-name="info" unicode="&#xf129;" horiz-adv-x="256" 
d="M224 95v129q0 25 -17 43q29 31 29 73q0 29 -14.5 54t-39.5 39.5t-54 14.5t-54 -14.5t-39.5 -39.5t-14.5 -54q0 -32 17 -58q-17 -8 -27 -23.5t-10 -34.5v-39q0 -18 8.5 -32.5t23.5 -23.5v-34q-15 -8 -23.5 -23t-8.5 -32v-40q0 -26 19 -45t45 -19h128q26 0 45 19t19 45v40
q0 17 -8.5 32t-23.5 23zM128 400q25 0 42.5 -17.5t17.5 -42.5t-17.5 -42.5t-42.5 -17.5t-42.5 17.5t-17.5 42.5t17.5 42.5t42.5 17.5zM208 0q0 -7 -4.5 -11.5t-11.5 -4.5h-128q-7 0 -11.5 4.5t-4.5 11.5v40q0 7 4.5 11.5t11.5 4.5h16v113h-16q-7 0 -11.5 4.5t-4.5 11.5v39
q0 7 4.5 11.5t11.5 4.5h96q7 0 11.5 -4.5t4.5 -11.5v-168h16q7 0 11.5 -4.5t4.5 -11.5v-40z" />
    <glyph glyph-name="exclamation" unicode="&#xf12a;" horiz-adv-x="256" 
d="M174 400q5 0 8.5 -3.5t3.5 -9.5l-12 -224q0 -4 -3.5 -7.5t-8.5 -3.5h-68q-5 0 -8.5 3.5t-3.5 7.5l-12 224q0 6 3.5 9.5t8.5 3.5h92zM128 112q26 0 45 -19t19 -45t-19 -45t-45 -19t-45 19t-19 45t19 45t45 19zM174 448h-92q-26 0 -43.5 -18.5t-16.5 -44.5l12 -224
q1 -20 14 -35q-32 -33 -32 -78q0 -30 15 -56t41 -41t56 -15t56 15t41 41t15 56q0 45 -32 78q13 15 14 35l12 224q1 26 -16.5 44.5t-43.5 18.5z" />
    <glyph glyph-name="calendar" unicode="&#xf133;" horiz-adv-x="448" 
d="M400 384h-48v52q0 5 -3.5 8.5t-8.5 3.5h-40q-5 0 -8.5 -3.5t-3.5 -8.5v-52h-128v52q0 5 -3.5 8.5t-8.5 3.5h-40q-5 0 -8.5 -3.5t-3.5 -8.5v-52h-48q-20 0 -34 -14t-14 -34v-352q0 -20 14 -34t34 -14h352q20 0 34 14t14 34v352q0 20 -14 34t-34 14zM394 -16h-340
q-2 0 -4 2t-2 4v298h352v-298q0 -2 -2 -4t-4 -2z" />
    <glyph glyph-name="chevron-circle-left" unicode="&#xf137;" 
d="M504 192q0 67 -33.5 124t-90.5 90.5t-124 33.5t-124 -33.5t-90.5 -90.5t-33.5 -124t33.5 -124t90.5 -90.5t124 -33.5t124 33.5t90.5 90.5t33.5 124zM56 192q0 54 27 100t73 73t100 27t100 -27t73 -73t27 -100t-27 -100t-73 -73t-100 -27t-100 27t-73 73t-27 100zM164 201
l122 122q4 4 9 4t8 -4l23 -22q3 -4 3 -9t-3 -8l-92 -92l92 -92q3 -3 3 -8t-3 -9l-23 -22q-3 -4 -8 -4t-9 4l-122 123q-4 3 -4 8t4 9z" />
    <glyph glyph-name="chevron-circle-right" unicode="&#xf138;" 
d="M8 192q0 -67 33.5 -124t90.5 -90.5t124 -33.5t124 33.5t90.5 90.5t33.5 124t-33.5 124t-90.5 90.5t-124 33.5t-124 -33.5t-90.5 -90.5t-33.5 -124zM456 192q0 -54 -27 -100t-73 -73t-100 -27t-100 27t-73 73t-27 100t27 100t73 73t100 27t100 -27t73 -73t27 -100z
M349 184l-123 -123q-4 -4 -9 -4t-8 4l-23 22q-3 4 -3 9t3 8l92 92l-92 92q-3 3 -3 8t3 9l23 22q3 4 8 4t9 -4l123 -122q3 -4 3 -9t-3 -9v1z" />
    <glyph glyph-name="chevron-circle-up" unicode="&#xf139;" 
d="M265 285l122 -123q4 -4 4 -9t-4 -8l-22 -23q-4 -3 -9 -3t-8 3l-92 92l-92 -92q-3 -3 -8 -3t-9 3l-22 23q-4 3 -4 8t4 9l123 123q3 3 8 3t9 -3zM504 192q0 -67 -33.5 -124t-90.5 -90.5t-124 -33.5t-124 33.5t-90.5 90.5t-33.5 124t33.5 124t90.5 90.5t124 33.5t124 -33.5
t90.5 -90.5t33.5 -124zM456 192q0 54 -27 100t-73 73t-100 27t-100 -27t-73 -73t-27 -100t27 -100t73 -73t100 -27t100 27t73 73t27 100z" />
    <glyph glyph-name="chevron-circle-down" unicode="&#xf13a;" 
d="M256 440q-67 0 -124 -33.5t-90.5 -90.5t-33.5 -124t33.5 -124t90.5 -90.5t124 -33.5t124 33.5t90.5 90.5t33.5 124t-33.5 124t-90.5 90.5t-124 33.5zM256 -8q-54 0 -100 27t-73 73t-27 100t27 100t73 73t100 27t100 -27t73 -73t27 -100t-27 -100t-73 -73t-100 -27z
M265 100l122 122q4 4 4 9t-4 8l-22 23q-4 3 -9 3t-8 -3l-92 -92l-92 92q-3 3 -8 3t-9 -3l-22 -23q-4 -3 -4 -8t4 -9l123 -122q3 -4 8 -4t9 4z" />
    <glyph glyph-name="check-square" unicode="&#xf14a;" horiz-adv-x="448" 
d="M400 416h-352q-20 0 -34 -14t-14 -34v-352q0 -20 14 -34t34 -14h352q20 0 34 14t14 34v352q0 20 -14 34t-34 14zM400 16h-352v352h352v-352zM364 258l-172 -171q-4 -4 -9 -4t-8 4l-91 91q-4 4 -4 9t4 8l23 23q3 3 8 3t9 -3l59 -61l142 140q3 4 8 4t9 -4l22 -22q4 -4 4 -9
t-4 -8z" />
    <glyph glyph-name="pen-square" unicode="&#xf14b;" horiz-adv-x="448" 
d="M247 270l55 -55q2 -2 2 -4.5t-2 -4.5l-136 -136l-57 -6q-5 -1 -9.5 3.5t-3.5 9.5l6 58l136 135q2 2 4.5 2t4.5 -2zM345 283l-30 30q-7 7 -17 7t-17 -7l-23 -23q-2 -2 -2 -4.5t2 -4.5l55 -55q2 -2 4.5 -2t4.5 2l23 23q7 7 7 17t-7 17zM448 368v-352q0 -20 -14 -34t-34 -14
h-352q-20 0 -34 14t-14 34v352q0 20 14 34t34 14h352q20 0 34 -14t14 -34zM400 22v340q0 2 -2 4t-4 2h-340q-2 0 -4 -2t-2 -4v-340q0 -2 2 -4t4 -2h340q2 0 4 2t2 4z" />
    <glyph glyph-name="external-link-square" unicode="&#xf14c;" horiz-adv-x="448" 
d="M400 416h-352q-20 0 -34 -14t-14 -34v-352q0 -20 14 -34t34 -14h352q20 0 34 14t14 34v352q0 20 -14 34t-34 14zM394 16h-340q-2 0 -4 2t-2 4v340q0 2 2 4t4 2h340q2 0 4 -2t2 -4v-340q0 -2 -2 -4t-4 -2zM340 320h-136q-5 0 -8.5 -3.5t-3.5 -8.5v-28q0 -5 3.5 -8.5
t8.5 -3.5l58 2l-162 -162q-4 -4 -4 -9t4 -8l23 -23q3 -4 8 -4t9 4l162 162l-2 -58q0 -5 3.5 -8.5t8.5 -3.5h28q5 0 8.5 3.5t3.5 8.5v136q0 5 -3.5 8.5t-8.5 3.5z" />
    <glyph glyph-name="share-square" unicode="&#xf14d;" horiz-adv-x="576" 
d="M562 290l-144 144q-15 14 -34.5 14t-33.5 -13.5t-14 -34.5v-57q-73 -3 -121 -18q-53 -17 -83 -50q-36 -40 -36 -99q0 -45 22.5 -82.5t62.5 -62.5q18 -11 37.5 -5.5t30 23t3.5 38.5q-9 27 -8 40q2 16 22.5 25.5t69.5 13.5v-54q0 -21 14 -34.5t33.5 -13.5t34.5 14l144 144
q14 14 14 34t-14 34zM384 112v104q-72 -1 -112 -11q-49 -13 -66 -43q-19 -32 0 -90q-26 16 -42 39q-20 29 -20 65q0 51 38 80q31 23 91 33q41 6 111 7v104l144 -144zM409 28q11 3 21 9q6 4 12 0.5t6 -10.5v-43q0 -20 -14 -34t-34 -14h-352q-20 0 -34 14t-14 34v352
q0 20 14 34t34 14h132q5 0 8.5 -3.5t3.5 -8.5v-4q0 -9 -8 -12q-20 -8 -38 -18q-3 -2 -6 -2h-86q-2 0 -4 -2t-2 -4v-340q0 -2 2 -4t4 -2h340q2 0 4 2t2 4v26q0 4 2.5 7t6.5 5z" />
    <glyph glyph-name="compass" unicode="&#xf14e;" horiz-adv-x="496" 
d="M348 318l-144 -66q-11 -5 -16 -16l-66 -144q-4 -8 -0.5 -15.5t11 -11t15.5 0.5l144 66q11 5 16 16l66 144q4 8 0.5 15.5t-11 11t-15.5 -0.5zM271 169q-10 -9 -23 -9t-22.5 9.5t-9.5 22.5t9.5 22.5t22.5 9.5t22.5 -9.5t9.5 -22.5t-9 -23zM248 440q-67 0 -124 -33.5
t-90.5 -90.5t-33.5 -124t33.5 -124t90.5 -90.5t124 -33.5t124 33.5t90.5 90.5t33.5 124t-33.5 124t-90.5 90.5t-124 33.5zM248 -8q-54 0 -100 27t-73 73t-27 100t27 100t73 73t100 27t100 -27t73 -73t27 -100t-27 -100t-73 -73t-100 -27z" />
    <glyph glyph-name="caret-square-down" unicode="&#xf150;" horiz-adv-x="448" 
d="M125 240h198q8 0 11 -7.5t-3 -12.5l-98 -99q-4 -3 -9 -3t-8 3l-99 99q-6 5 -3 12.5t11 7.5zM448 368v-352q0 -20 -14 -34t-34 -14h-352q-20 0 -34 14t-14 34v352q0 20 14 34t34 14h352q20 0 34 -14t14 -34zM400 22v340q0 2 -2 4t-4 2h-340q-2 0 -4 -2t-2 -4v-340
q0 -2 2 -4t4 -2h340q2 0 4 2t2 4z" />
    <glyph glyph-name="caret-square-up" unicode="&#xf151;" horiz-adv-x="448" 
d="M323 144h-198q-8 0 -11 7.5t3 13.5l99 98q3 3 8 3t8 -3l99 -98q6 -6 3 -13.5t-11 -7.5zM448 368v-352q0 -20 -14 -34t-34 -14h-352q-20 0 -34 14t-14 34v352q0 20 14 34t34 14h352q20 0 34 -14t14 -34zM400 22v340q0 2 -2 4t-4 2h-340q-2 0 -4 -2t-2 -4v-340q0 -2 2 -4
t4 -2h340q2 0 4 2t2 4z" />
    <glyph glyph-name="caret-square-right" unicode="&#xf152;" horiz-adv-x="448" 
d="M176 93v198q0 8 7.5 11t13.5 -3l98 -98q3 -4 3 -9t-3 -8l-98 -99q-6 -6 -13.5 -3t-7.5 11zM448 368v-352q0 -20 -14 -34t-34 -14h-352q-20 0 -34 14t-14 34v352q0 20 14 34t34 14h352q20 0 34 -14t14 -34zM400 22v340q0 2 -2 4t-4 2h-340q-2 0 -4 -2t-2 -4v-340
q0 -2 2 -4t4 -2h340q2 0 4 2t2 4z" />
    <glyph glyph-name="file" unicode="&#xf15b;" horiz-adv-x="384" 
d="M370 350l-84 84q-14 14 -34 14h-204q-20 0 -34 -14t-14 -34v-416q0 -20 14 -34t34 -14h288q20 0 34 14t14 34v332q0 20 -14 34zM332 320h-76v76zM48 -16v416h160v-104q0 -10 7 -17t17 -7h104v-288h-288z" />
    <glyph glyph-name="file-alt" unicode="&#xf15c;" horiz-adv-x="384" 
d="M288 200v-28q0 -5 -3.5 -8.5t-8.5 -3.5h-168q-5 0 -8.5 3.5t-3.5 8.5v28q0 5 3.5 8.5t8.5 3.5h168q5 0 8.5 -3.5t3.5 -8.5zM276 128h-168q-5 0 -8.5 -3.5t-3.5 -8.5v-28q0 -5 3.5 -8.5t8.5 -3.5h168q5 0 8.5 3.5t3.5 8.5v28q0 5 -3.5 8.5t-8.5 3.5zM384 316v-332
q0 -20 -14 -34t-34 -14h-288q-20 0 -34 14t-14 34v416q0 20 14 34t34 14h204q20 0 34 -14l84 -84q14 -14 14 -34zM256 396v-76h76zM336 -16v288h-104q-10 0 -17 7t-7 17v104h-160v-416h288z" />
    <glyph glyph-name="sort-alpha-down" unicode="&#xf15d;" horiz-adv-x="384" 
d="M157 44l-68 -72q-4 -4 -9 -4t-9 4l-68 72q-5 5 -2 12.5t11 7.5h44v340q0 5 3.5 8.5t8.5 3.5h24q5 0 8.5 -3.5t3.5 -8.5v-340h44q8 0 11 -7.5t-2 -12.5zM263 233q-2 -4 -5 -6.5t-7 -2.5h-29q-6 0 -9.5 5t-1.5 11l57 168q2 8 11 8h36q8 0 11 -8l57 -168q2 -6 -1.5 -11
t-9.5 -5h-29q-9 0 -12 9l-8 30h-52zM284 307h26l-9 30l-4 16l-4 -16zM292 15q4 4 7 10l70 99q2 3 2 7v17q0 5 -3.5 8.5t-8.5 3.5h-123q-4 0 -8 -3.5t-4 -8.5v-23q0 -5 4 -8.5t8 -3.5h65q-4 -4 -8 -10l-70 -98q-2 -3 -2 -7v-18q0 -5 3.5 -8.5t8.5 -3.5h128q5 0 8.5 3.5
t3.5 8.5v23q0 5 -3.5 8.5t-8.5 3.5h-69z" />
    <glyph glyph-name="sort-alpha-up" unicode="&#xf15e;" horiz-adv-x="448" 
d="M35 340l68 72q4 4 9 4t9 -4l68 -72q5 -5 2 -12.5t-11 -7.5h-44v-340q0 -5 -3.5 -8.5t-8.5 -3.5h-24q-5 0 -8.5 3.5t-3.5 8.5v340h-44q-8 0 -11 7.5t2 12.5zM302 233q-1 -4 -4.5 -6.5t-7.5 -2.5h-29q-6 0 -9.5 5t-1.5 11l57 168q2 8 11 8h36q9 0 11 -8l57 -168
q2 -6 -1.5 -11t-9.5 -5h-29q-9 0 -12 9l-8 30h-52zM323 307h26l-9 30l-4 16l-4 -16zM331 15q4 4 8 10l69 99q3 3 3 7v17q0 5 -4 8.5t-8 3.5h-123q-5 0 -8.5 -3.5t-3.5 -8.5v-23q0 -5 3.5 -8.5t8.5 -3.5h64q-4 -4 -8 -10l-70 -98q-2 -3 -2 -7v-18q0 -5 3.5 -8.5t8.5 -3.5h128
q5 0 8.5 3.5t3.5 8.5v23q0 5 -3.5 8.5t-8.5 3.5h-69z" />
    <glyph glyph-name="sort-amount-down" unicode="&#xf160;" 
d="M157 44l-68 -72q-4 -4 -9 -4t-9 4l-68 72q-5 5 -2 12.5t11 7.5h44v340q0 5 3.5 8.5t8.5 3.5h24q5 0 8.5 -3.5t3.5 -8.5v-340h44q8 0 11 -7.5t-2 -12.5zM236 312h264q5 0 8.5 3.5t3.5 8.5v24q0 5 -3.5 8.5t-8.5 3.5h-264q-5 0 -8.5 -3.5t-3.5 -8.5v-24q0 -5 3.5 -8.5
t8.5 -3.5zM224 228v24q0 5 3.5 8.5t8.5 3.5h200q5 0 8.5 -3.5t3.5 -8.5v-24q0 -5 -3.5 -8.5t-8.5 -3.5h-200q-5 0 -8.5 3.5t-3.5 8.5zM224 36v24q0 5 3.5 8.5t8.5 3.5h72q5 0 8.5 -3.5t3.5 -8.5v-24q0 -5 -3.5 -8.5t-8.5 -3.5h-72q-5 0 -8.5 3.5t-3.5 8.5zM224 132v24
q0 5 3.5 8.5t8.5 3.5h136q5 0 8.5 -3.5t3.5 -8.5v-24q0 -5 -3.5 -8.5t-8.5 -3.5h-136q-5 0 -8.5 3.5t-3.5 8.5z" />
    <glyph glyph-name="sort-amount-up" unicode="&#xf161;" 
d="M3 340l68 72q4 4 9 4t9 -4l68 -72q5 -5 2 -12.5t-11 -7.5h-44v-340q0 -5 -3.5 -8.5t-8.5 -3.5h-24q-5 0 -8.5 3.5t-3.5 8.5v340h-44q-8 0 -11 7.5t2 12.5zM236 312h264q5 0 8.5 3.5t3.5 8.5v24q0 5 -3.5 8.5t-8.5 3.5h-264q-5 0 -8.5 -3.5t-3.5 -8.5v-24q0 -5 3.5 -8.5
t8.5 -3.5zM224 228v24q0 5 3.5 8.5t8.5 3.5h200q5 0 8.5 -3.5t3.5 -8.5v-24q0 -5 -3.5 -8.5t-8.5 -3.5h-200q-5 0 -8.5 3.5t-3.5 8.5zM224 36v24q0 5 3.5 8.5t8.5 3.5h72q5 0 8.5 -3.5t3.5 -8.5v-24q0 -5 -3.5 -8.5t-8.5 -3.5h-72q-5 0 -8.5 3.5t-3.5 8.5zM224 132v24
q0 5 3.5 8.5t8.5 3.5h136q5 0 8.5 -3.5t3.5 -8.5v-24q0 -5 -3.5 -8.5t-8.5 -3.5h-136q-5 0 -8.5 3.5t-3.5 8.5z" />
    <glyph glyph-name="sort-numeric-down" unicode="&#xf162;" horiz-adv-x="384" 
d="M373 259v-23q0 -5 -3.5 -8.5t-8.5 -3.5h-107q-5 0 -8.5 3.5t-3.5 8.5v23q0 5 3.5 8.5t8.5 3.5h27v74l-6 -5q-3 -3 -8 -3t-8 4l-16 16q-3 3 -3 8t4 9l41 39q4 3 9 3h27q5 0 8.5 -3.5t3.5 -8.5v-133h28q5 0 8.5 -3.5t3.5 -8.5zM285 -35q-19 0 -35 5q-4 2 -6.5 6.5t-0.5 8.5
l7 24q2 4 6 6.5t9 1.5q16 -5 28.5 -1t20.5 17q-21 -6 -40 1t-31 24t-12 39q0 26 17 45q19 21 50 21q33 0 55 -24q24 -25 24 -68t-25 -74q-26 -32 -67 -32zM284 97q0 -9 5.5 -16t17.5 -7q15 0 15 7q0 14 -7.5 23.5t-15.5 9.5t-11.5 -5t-3.5 -12zM148 64h-44v340q0 5 -3.5 8.5
t-8.5 3.5h-24q-5 0 -8.5 -3.5t-3.5 -8.5v-340h-44q-8 0 -11 -7.5t2 -12.5l68 -72q4 -4 9 -4t9 4l68 72q5 5 2 12.5t-11 7.5z" />
    <glyph glyph-name="sort-numeric-up" unicode="&#xf163;" horiz-adv-x="384" 
d="M373 259v-23q0 -5 -3.5 -8.5t-8.5 -3.5h-107q-5 0 -8.5 3.5t-3.5 8.5v23q0 5 3.5 8.5t8.5 3.5h27v74l-6 -5q-3 -3 -8 -3t-8 4l-16 16q-3 3 -3 8t4 9l41 39q4 3 9 3h27q5 0 8.5 -3.5t3.5 -8.5v-133h28q5 0 8.5 -3.5t3.5 -8.5zM285 -35q-19 0 -35 5q-4 2 -6.5 6.5t-0.5 8.5
l7 24q2 4 6 6.5t9 1.5q16 -5 28.5 -1t20.5 17q-21 -6 -40 1t-31 24t-12 39q0 26 17 45q19 21 50 21q33 0 55 -24q24 -25 24 -68t-25 -74q-26 -32 -67 -32zM284 97q0 -9 5.5 -16t17.5 -7q15 0 15 7q0 14 -7.5 23.5t-15.5 9.5t-11.5 -5t-3.5 -12zM12 320h44v-340
q0 -5 3.5 -8.5t8.5 -3.5h24q5 0 8.5 3.5t3.5 8.5v340h44q8 0 11 7.5t-2 12.5l-68 72q-4 4 -9 4t-9 -4l-68 -72q-5 -5 -2 -12.5t11 -7.5z" />
    <glyph glyph-name="thumbs-up" unicode="&#xf164;" 
d="M466 161q14 24 14 50q0 34 -25 60t-61 26h-36q9 23 9 46q0 53 -26 80q-25 25 -70 25q-28 0 -44 -28q-9 -16 -18 -52q-5 -25 -9 -29q-11 -11 -35 -42.5t-34 -40.5h-99q-13 0 -22.5 -9.5t-9.5 -22.5v-240q0 -13 9.5 -22.5t22.5 -9.5h64q11 0 19.5 7t11.5 17q12 0 25 -4
q8 -3 26 -10q30 -12 50 -17q35 -9 77 -9h22q56 0 85 27q27 24 28 68q10 14 14.5 32t2.5 35q16 30 9 63zM405 107q8 -15 3 -32.5t-17 -24.5q5 -35 -11 -51q-14 -15 -43 -15h-37q-26 0 -53 7q-16 4 -46 14q-24 9 -36 12q-20 5 -37 5v186h11q13 0 32 20q11 11 33 41
q21 28 29 36q11 11 17 27q3 10 7 30q3 15 5 21q4 11 9 17q31 0 42 -19q6 -12 6 -38q0 -13 -5 -26q-3 -8 -10 -22t-9 -21q-5 -13 -5 -25h104q16 0 27 -12t11 -26t-7.5 -26t-14.5 -12q11 -12 10.5 -31.5t-15.5 -34.5zM88 16q0 -10 -7 -17t-17 -7t-17 7t-7 17t7 17t17 7t17 -7
t7 -17z" />
    <glyph glyph-name="thumbs-down" unicode="&#xf165;" 
d="M466 223q7 33 -9 63q2 17 -2.5 35t-14.5 32q-1 44 -28 68q-29 27 -85 27h-22q-42 0 -78 -9q-20 -5 -51 -18q-17 -7 -25 -9q-12 -4 -23 -4h-11q-9 8 -21 8h-64q-13 0 -22.5 -9.5t-9.5 -22.5v-240q0 -13 9.5 -22.5t22.5 -9.5h64q9 0 16 4.5t12 11.5h7q10 -9 34 -40.5
t35 -42.5q4 -4 9 -29q9 -36 18 -52q16 -28 44 -28q45 0 70 25q26 27 26 80q0 23 -9 46h36q36 0 61 26t25 60q0 26 -14 50zM64 152q-10 0 -17 7t-7 17t7 17t17 7t17 -7t7 -17t-7 -17t-17 -7zM394 135h-104q0 -12 5 -25q2 -7 9 -21t10 -22q5 -13 5 -26q0 -26 -6 -38
q-11 -19 -42 -19q-5 6 -9 17q-2 6 -5 21q-4 20 -7 30q-6 16 -17 27q-8 8 -29 36q-22 30 -33 41q-19 20 -32 20h-11v186q17 0 37 5q12 3 36 12q30 10 46 14q27 7 53 7h37q29 0 43 -15q16 -16 11 -51q12 -7 17 -24.5t-3 -32.5q15 -15 15.5 -34.5t-10.5 -31.5q7 0 14.5 -12
t7.5 -26t-11 -26t-27 -12z" />
    <glyph glyph-name="long-arrow-up" unicode="&#xf176;" horiz-adv-x="320" 
d="M20 264l19 -20q4 -4 9 -4t8 4l78 81v-345q0 -5 3.5 -8.5t8.5 -3.5h28q5 0 8.5 3.5t3.5 8.5v345l78 -81q3 -4 8 -4t9 4l19 20q4 3 4 8t-4 8l-132 132q-3 4 -8 4t-8 -4l-132 -132q-4 -3 -4 -8t4 -8z" />
    <glyph glyph-name="long-arrow-left" unicode="&#xf177;" horiz-adv-x="448" 
d="M152 52l20 19q4 4 4 9t-4 8l-81 78h345q5 0 8.5 3.5t3.5 8.5v28q0 5 -3.5 8.5t-8.5 3.5h-345l81 78q4 3 4 8t-4 9l-20 19q-3 4 -8 4t-8 -4l-132 -132q-4 -3 -4 -8t4 -8l132 -132q3 -4 8 -4t8 4z" />
    <glyph glyph-name="long-arrow-right" unicode="&#xf178;" horiz-adv-x="448" 
d="M296 332l-20 -19q-4 -4 -4 -9t4 -8l81 -78h-345q-5 0 -8.5 -3.5t-3.5 -8.5v-28q0 -5 3.5 -8.5t8.5 -3.5h345l-81 -78q-4 -3 -4 -8t4 -9l20 -19q3 -4 8 -4t8 4l132 132q4 3 4 8t-4 8l-132 132q-3 4 -8 4t-8 -4z" />
    <glyph glyph-name="female" unicode="&#xf182;" horiz-adv-x="320" 
d="M301 116l-48 140q-6 15 -18 26q25 28 25 66q0 41 -29.5 70.5t-70.5 29.5t-70.5 -29.5t-29.5 -70.5q0 -38 25 -66q-12 -11 -18 -26l-48 -139q-6 -21 0.5 -40.5t23 -32t37.5 -12.5v-32q0 -26 19 -45t45 -19h32q26 0 45 19t19 45v32q22 0 38.5 12.5t22.5 32t0 39.5zM160 400
q22 0 37 -15t15 -37t-15 -37t-37 -15t-37 15t-15 37t15 37t37 15zM240 80h-48v-80q0 -7 -4.5 -11.5t-11.5 -4.5h-32q-7 0 -11.5 4.5t-4.5 11.5v80h-48q-8 0 -13 6.5t-2 14.5l48 139q1 5 5.5 8t9.5 3h8q24 -6 48 0h8q5 0 9.5 -3t5.5 -8l48 -139q3 -8 -2 -14.5t-13 -6.5z" />
    <glyph glyph-name="male" unicode="&#xf183;" horiz-adv-x="256" 
d="M211 293q17 25 17 55q0 41 -29.5 70.5t-70.5 29.5t-70.5 -29.5t-29.5 -70.5q0 -30 17 -55q-21 -11 -33 -31.5t-12 -44.5v-89q0 -19 10.5 -35t27.5 -23v-70q0 -26 19 -45t45 -19h52q26 0 45 19t19 45v70q17 7 27.5 23t10.5 35v89q0 24 -12 44.5t-33 31.5zM128 400
q22 0 37 -15t15 -37t-15 -37t-37 -15t-37 15t-15 37t15 37t37 15zM208 128q0 -7 -4.5 -11.5t-11.5 -4.5h-22v-112q0 -7 -4.5 -11.5t-11.5 -4.5h-52q-7 0 -11.5 4.5t-4.5 11.5v112h-22q-7 0 -11.5 4.5t-4.5 11.5v89q0 16 11 27.5t30 11.5q19 -8 39 -8t39 8q18 0 29.5 -11.5
t11.5 -27.5v-89z" />
    <glyph glyph-name="bug" unicode="&#xf188;" horiz-adv-x="576" 
d="M536 184h-64v94l41 41q7 7 7 17t-7 17t-17 7t-17 -7l-41 -41h-13q0 37 -18.5 68t-49.5 49.5t-68 18.5t-68 -18.5t-49.5 -49.5t-18.5 -68h-15l-41 41q-7 7 -17 7t-17 -7t-7 -17t7 -17l41 -41v-94h-64q-10 0 -17 -7t-7 -17t7 -17t17 -7h64v-24q0 -43 22 -80l-55 -55
q-7 -7 -7 -17t7 -17t17 -7t17 7l51 51q22 -20 49.5 -31t58.5 -11h48q31 0 58.5 11t49.5 31l51 -51q7 -7 17 -7t17 7t7 17t-7 17l-55 55q22 37 22 80v24h64q10 0 17 7t7 17t-7 17t-17 7zM289 400q36 0 62 -26t26 -62h-176q0 36 26 62t62 26zM312 0v188q0 5 -3.5 8.5t-8.5 3.5
h-24q-5 0 -8.5 -3.5t-3.5 -8.5v-188q-30 0 -56 15t-41 41t-15 56v152h272v-152q0 -30 -15 -56t-41 -41t-56 -15z" />
    <glyph glyph-name="wheelchair" unicode="&#xf193;" 
d="M500 48l11 -21q2 -5 0.5 -9.5t-6.5 -6.5l-63 -33q-9 -4 -18.5 -0.5t-13.5 12.5l-66 146h-160q-9 0 -16 6t-8 15l-32 243q0 20 14.5 34.5t34.5 13.5t33 -14t14 -32t-11 -33t-30 -17l9 -72h148q5 0 8.5 -3.5t3.5 -8.5v-24q0 -5 -3.5 -8.5t-8.5 -3.5h-141l6 -48h155
q7 0 13 -4t9 -10l61 -137l41 21q4 2 9 0.5t7 -6.5zM313 88h-11q-9 -45 -44.5 -74.5t-81.5 -29.5q-35 0 -64.5 17t-46.5 46.5t-17 64.5q0 32 15 60t41 46l-7 51q-44 -22 -70.5 -64t-26.5 -93q0 -48 23.5 -88.5t64 -64t88.5 -23.5q52 0 95 28t65 74z" />
    <glyph glyph-name="lira-sign" unicode="&#xf195;" horiz-adv-x="384" 
d="M372 192h-36q-5 0 -8.5 -3.5t-3.5 -7.5q-3 -76 -49 -117q-44 -40 -119 -40h-28v172l151 33q4 1 6.5 4.5t2.5 7.5v25q0 5 -4.5 9t-10.5 2l-145 -32v47l151 33q4 1 6.5 4.5t2.5 7.5v25q0 5 -4.5 9t-10.5 2l-145 -32v63q0 5 -3.5 8.5t-8.5 3.5h-40q-5 0 -8.5 -3.5t-3.5 -8.5
v-77l-55 -12q-4 -1 -6.5 -4.5t-2.5 -7.5v-25q0 -5 4.5 -9t10.5 -2l49 11v-47l-55 -12q-4 -1 -6.5 -4.5t-2.5 -7.5v-25q0 -5 4.5 -9t10.5 -2l49 11v-202q0 -5 3.5 -8.5t8.5 -3.5h81q101 0 162 56t65 156q0 5 -3.5 8.5t-8.5 3.5z" />
    <glyph glyph-name="envelope-square" unicode="&#xf199;" horiz-adv-x="448" 
d="M187 188q-62 42 -84 59l-7 5v12q0 10 7 17t17 7h208q10 0 17 -7t7 -17v-12l-7 -5q-22 -17 -84 -59l-5 -4q-22 -16 -32 -16t-32 16zM279 161q-2 -1 -5 -4q-14 -9 -22 -14q-15 -7 -28 -7t-28 7q-8 5 -22 14l-5 4q-56 39 -73 51v-92q0 -10 7 -17t17 -7h208q10 0 17 7t7 17
v92q-17 -12 -73 -51zM448 368v-352q0 -20 -14 -34t-34 -14h-352q-20 0 -34 14t-14 34v352q0 20 14 34t34 14h352q20 0 34 -14t14 -34zM400 22v340q0 2 -2 4t-4 2h-340q-2 0 -4 -2t-2 -4v-340q0 -2 2 -4t4 -2h340q2 0 4 2t2 4z" />
    <glyph glyph-name="graduation-cap" unicode="&#xf19d;" horiz-adv-x="640" 
d="M607 300l-258 80q-29 8 -58 0l-258 -80q-15 -5 -24 -17t-9 -27t9 -27.5t24 -16.5l23 -7q-4 -8 -6 -16q-8 -4 -13 -12t-5 -17q0 -16 14 -26l-26 -115q-1 -7 3.5 -13t12.5 -6h56q8 0 12.5 6t3.5 13l-26 115q14 10 14 26t-13 25q1 4 4 10l55 -17l-14 -114q0 -17 26 -32
t70 -23.5t96 -8.5t96 8.5t70 23.5t26 32l-14 114l109 34q15 4 24 16.5t9 27.5t-9 27t-24 17zM462 74q-28 -17 -87 -23q-55 -6 -111 0q-58 6 -86 23l11 90l102 -32q29 -9 58 0l102 32zM335 178q-15 -4 -30 0l-150 47l168 31q6 1 10 6.5t3 12t-6.5 10.5t-12.5 3l-204 -39
q-8 -1 -18 -6l-42 13l252 78q15 4 30 0l252 -78z" />
    <glyph glyph-name="file-pdf" unicode="&#xf1c1;" horiz-adv-x="384" 
d="M370 350l-84 84q-14 14 -34 14h-204q-20 0 -34 -14t-14 -34v-416q0 -20 14 -34t34 -14h288q20 0 34 14t14 34v332q0 20 -14 34zM332 320h-76v76zM48 -16v416h160v-104q0 -10 7 -17t17 -7h104v-288h-288zM298 128q-13 13 -64 6q-25 15 -37 47v1q10 40 5 54q-2 13 -11 17.5
t-19 1t-12 -12.5q-6 -19 7 -67q-20 -46 -36 -74q-46 -24 -51 -46q-1 -7 4 -14.5t15.5 -8.5t23.5 10q16 14 34 44l12 4q38 13 56 16q14 -8 29.5 -12.5t27 -4.5t17 7t5.5 16.5t-6 15.5zM100 50q4 12 27 32l4 3q-9 -14 -17 -23q-6 -7 -10 -10t-4 -2zM182 241q5 0 5 -17t-3 -24
q-4 9 -4 25t2 16zM157 104q12 20 25 55q12 -23 30 -36q-16 -3 -43 -14zM289 109q-1 -1 -3 -1q-3 -1 -10 1q-10 2 -24 8q16 1 25 -0.5t11.5 -4t0.5 -3.5z" />
    <glyph glyph-name="file-word" unicode="&#xf1c2;" horiz-adv-x="384" 
d="M370 350l-84 84q-14 14 -34 14h-204q-20 0 -34 -14t-14 -34v-416q0 -20 14 -34t34 -14h288q20 0 34 14t14 34v332q0 20 -14 34zM332 320h-76v76zM48 -16v416h160v-104q0 -10 7 -17t17 -7h104v-288h-288zM268 192q-4 0 -7.5 -2.5t-4.5 -6.5l-10 -49q-10 -49 -11 -55v0
l-24 104q-1 4 -4 6.5t-8 2.5h-13q-4 0 -7.5 -2.5t-4.5 -6.5l-12 -51q-12 -47 -12 -53v0l-20 103q-1 5 -4 7.5t-8 2.5h-17q-5 0 -9 -4.5t-2 -10.5l33 -136q1 -4 4 -6.5t8 -2.5h25q4 0 7 2.5t4 6.5l18 72q3 9 3 17l3 -18l18 -71q1 -4 4.5 -6.5t7.5 -2.5h24q5 0 8 2.5t4 6.5
l35 136q1 6 -2.5 10.5t-9.5 4.5h-16z" />
    <glyph glyph-name="file-excel" unicode="&#xf1c3;" horiz-adv-x="384" 
d="M370 350l-84 84q-14 14 -34 14h-204q-20 0 -34 -14t-14 -34v-416q0 -20 14 -34t34 -14h288q20 0 34 14t14 34v332q0 20 -14 34zM332 320h-76v76zM48 -16v416h160v-104q0 -10 7 -17t17 -7h104v-288h-288zM260 224h-29q-7 0 -10 -6q-20 -36 -29 -58l-9 19q-5 11 -19 39
q-4 6 -11 6h-29q-7 0 -10.5 -6t0.5 -12l46 -78l-46 -78q-4 -6 -0.5 -12t10.5 -6h29q7 0 10 6q19 34 27 52l2 6l10 -21q5 -11 19 -37q3 -6 10 -6h29q7 0 10.5 6t-0.5 12l-46 78q11 17 46 78q4 6 0.5 12t-10.5 6z" />
    <glyph glyph-name="file-powerpoint" unicode="&#xf1c4;" horiz-adv-x="384" 
d="M370 350l-84 84q-14 14 -34 14h-204q-20 0 -34 -14t-14 -34v-416q0 -20 14 -34t34 -14h288q20 0 34 14t14 34v332q0 20 -14 34zM332 320h-76v76zM48 -16v416h160v-104q0 -10 7 -17t17 -7h104v-288h-288zM120 44v168q0 5 3.5 8.5t8.5 3.5h69q28 0 45.5 -18.5t17.5 -47.5
q0 -45 -33 -59q-18 -9 -55 -8h-7v-47q-1 -5 -4.5 -8.5t-7.5 -3.5h-25q-5 0 -8.5 3.5t-3.5 8.5zM169 131h23q11 0 17.5 7.5t6.5 19t-6.5 18.5t-17.5 7h-24v-52h1z" />
    <glyph glyph-name="file-image" unicode="&#xf1c5;" horiz-adv-x="384" 
d="M370 350l-84 84q-14 14 -34 14h-204q-20 0 -34 -14t-14 -34v-416q0 -20 14 -34t34 -14h288q20 0 34 14t14 34v332q0 20 -14 34zM332 320h-76v76zM48 -16v416h160v-104q0 -10 7 -17t17 -7h104v-288h-288zM80 32h224v128l-23 24q-4 3 -9 3t-8 -3l-88 -88l-39 40q-4 3 -9 3
t-9 -4l-39 -39v-64zM128 272q-20 0 -34 -14t-14 -34t14 -34t34 -14t34 14t14 34t-14 34t-34 14z" />
    <glyph glyph-name="file-archive" unicode="&#xf1c6;" horiz-adv-x="384" 
d="M370 350l-84 84q-14 14 -34 14h-204q-20 0 -34 -14t-14 -34v-416q0 -20 14 -34t34 -14h288q20 0 34 14t14 34v332q0 20 -14 34zM256 396l76 -76h-76v76zM336 -16h-288v416h80v-16h32v16h48v-104q0 -10 7 -17t17 -7h104v-288zM192 352h-32v32h32v-32zM160 352v-32h-32v32
h32zM160 288v-32h-32v32h32zM192 288h-32v32h32v-32zM194 182q-1 5 -4 7.5t-8 2.5h-22v32h-32v-32l-19 -97q-5 -24 10.5 -43.5t40.5 -19.5t40.5 19t10.5 44zM160 58q-13 0 -22.5 8t-9.5 19t9.5 19t23 8t23 -8t9.5 -19t-9.5 -19t-23.5 -8zM192 224h-32v32h32v-32z" />
    <glyph glyph-name="file-audio" unicode="&#xf1c7;" horiz-adv-x="384" 
d="M370 350l-84 84q-14 14 -34 14h-204q-20 0 -34 -14t-14 -34v-416q0 -20 14 -34t34 -14h288q20 0 34 14t14 34v332q0 20 -14 34zM332 320h-76v76zM48 -16v416h160v-104q0 -10 7 -17t17 -7h104v-288h-288zM192 60q0 -8 -7.5 -11t-12.5 3l-36 36h-28q-5 0 -8.5 3.5t-3.5 8.5
v56q0 4 3.5 8t8.5 4h28l36 36q5 6 12.5 3t7.5 -11v-136zM233 107q7 7 7 17t-7 17q-10 10 -5.5 23t17 17t23.5 -7q20 -21 20 -50t-20 -50q-11 -11 -23.5 -7t-17 16.5t5.5 23.5z" />
    <glyph glyph-name="file-video" unicode="&#xf1c8;" horiz-adv-x="384" 
d="M370 350l-84 84q-14 14 -34 14h-204q-20 0 -34 -14t-14 -34v-416q0 -20 14 -34t34 -14h288q20 0 34 14t14 34v332q0 20 -14 34zM332 320h-76v76zM48 -16v416h160v-104q0 -10 7 -17t17 -7h104v-288h-288zM277 195l-53 -52v37q0 8 -6 14t-14 6h-104q-8 0 -14 -6t-6 -14
v-104q0 -8 6 -14t14 -6h104q8 0 14 6t6 14v37l53 -52q7 -8 17 -4t10 15v112q0 11 -10 15t-17 -4z" />
    <glyph glyph-name="file-code" unicode="&#xf1c9;" horiz-adv-x="384" 
d="M370 350l-84 84q-14 14 -34 14h-204q-20 0 -34 -14t-14 -34v-416q0 -20 14 -34t34 -14h288q20 0 34 14t14 34v332q0 20 -14 34zM332 320h-76v76zM48 -16v416h160v-104q0 -10 7 -17t17 -7h104v-288h-288zM150 99l-33 29l33 29q2 2 2.5 6t-2.5 7l-17 18q-3 3 -6.5 3
t-6.5 -3l-57 -54q-3 -2 -3 -6t3 -6l57 -54q3 -3 6.5 -3t6.5 3l17 18q3 3 2.5 7t-2.5 6zM234 227l-24 7q-4 1 -7 -0.5t-4 -5.5l-55 -188q-1 -4 1 -7t5 -4l24 -7q4 -1 7 0.5t4 5.5l55 188q1 4 -1 7t-5 4zM321 134l-57 54q-3 3 -6.5 3t-6.5 -3l-17 -18q-3 -3 -2.5 -7t2.5 -6
l33 -29l-33 -29q-2 -2 -2.5 -6t2.5 -7l17 -18q3 -3 6.5 -3t6.5 3v0l57 54q3 2 3 6t-3 6z" />
    <glyph glyph-name="share-alt" unicode="&#xf1e0;" horiz-adv-x="448" 
d="M448 32q0 -40 -28 -68t-68 -28t-68 28t-28 68q0 15 4 29l-98 61q-28 -26 -67 -26t-67 28t-28 68t28 68t67 28t67 -26l98 61q-4 14 -4 29q0 40 28 68t68 28t68 -28t28 -68t-28 -68t-67 -28t-67 26l-98 -61q9 -29 0 -58l98 -61q28 26 67 26t67 -28t28 -68zM352 400
q-20 0 -34 -14t-14 -34t14 -34t34 -14t34 14t14 34t-14 34t-34 14zM96 240q-20 0 -34 -14t-14 -34t14 -34t34 -14t34 14t14 34t-14 34t-34 14zM352 80q-20 0 -34 -14t-14 -34t14 -34t34 -14t34 14t14 34t-14 34t-34 14z" />
    <glyph glyph-name="share-alt-square" unicode="&#xf1e1;" horiz-adv-x="448" 
d="M400 416h-352q-20 0 -34 -14t-14 -34v-352q0 -20 14 -34t34 -14h352q20 0 34 14t14 34v352q0 20 -14 34t-34 14zM394 16h-340q-2 0 -4 2t-2 4v340q0 2 2 4t4 2h340q2 0 4 -2t2 -4v-340q0 -2 -2 -4t-4 -2zM336 112q0 -20 -14 -34t-34 -14t-34 14t-14 34v6l-69 34
q-12 -8 -27 -8q-20 0 -34 14t-14 34t14 34t34 14q15 0 27 -8l69 34v6q0 20 14 34t34 14t34 -14t14 -34t-14 -34t-33.5 -14t-33.5 13l-65 -32q4 -13 0 -26l65 -32q14 13 33.5 13t33.5 -14t14 -34z" />
    <glyph glyph-name="bell-slash" unicode="&#xf1f6;" horiz-adv-x="640" 
d="M634 -23l-598 467q-5 5 -11.5 4t-10.5 -6l-10 -12q-5 -6 -4 -12.5t6 -10.5l598 -467q5 -5 11.5 -4t10.5 6l10 12q5 6 4 12.5t-6 10.5zM164 80q32 43 41 111l-46 35q-2 -56 -19 -93q-11 -21 -32 -44l-3 -3q-9 -10 -9 -22.5t9 -22t23 -9.5h280l-62 48h-182zM320 352
q30 0 56 -15t41 -41t15 -56v-1q0 -22 3 -45l59 -47q-14 38 -14 93q0 58 -36 101t-92 54v21q0 13 -9.5 22.5t-22.5 9.5t-22.5 -9.5t-9.5 -22.5v-21q-38 -8 -69 -33l38 -29q29 19 63 19zM320 -64q26 0 45 18.5t19 45.5h-128q0 -27 19 -45.5t45 -18.5z" />
    <glyph glyph-name="copyright" unicode="&#xf1f9;" 
d="M256 440q-67 0 -124 -33.5t-90.5 -90.5t-33.5 -124t33.5 -124t90.5 -90.5t124 -33.5t124 33.5t90.5 90.5t33.5 124t-33.5 124t-90.5 90.5t-124 33.5zM256 -8q-54 0 -100 27t-73 73t-27 100t27 100t73 73t100 27t100 -27t73 -73t27 -100t-27 -100t-73 -73t-100 -27z
M363 93q-13 -14 -33 -24q-33 -17 -71 -17q-40 0 -72 18.5t-50 50.5t-18 71.5t18 71.5t50 50.5t72 18.5q35 0 66 -15q18 -8 31 -20q3 -3 3.5 -7.5t-1.5 -7.5l-18 -29q-3 -4 -8 -5t-10 3q-28 22 -61 22q-36 0 -57 -23t-21 -57t20 -57q22 -27 58 -27q21 0 42 11q13 7 24 16
q4 4 9 3.5t9 -4.5l20 -27q2 -4 1.5 -8.5t-3.5 -7.5z" />
    <glyph glyph-name="at" unicode="&#xf1fa;" 
d="M504 216q0 67 -34 119q-32 49 -88.5 77t-124.5 28t-125 -33.5t-90.5 -90.5t-33.5 -124t33.5 -124t90.5 -90.5t124 -33.5q40 0 77.5 12.5t69.5 35.5q4 3 4.5 8.5t-2.5 9.5l-15 18q-3 4 -8 4.5t-8 -2.5q-53 -38 -118 -38q-54 0 -100 27t-73 73t-27 100t27 100t73 73
t100.5 27t100.5 -21t71 -60q28 -41 28 -95q0 -45 -26 -73q-24 -25 -57 -25q-14 0 -17 7.5t1 23.5l28 149q1 5 -2.5 9.5t-9.5 4.5h-39q-4 0 -7.5 -2.5t-4.5 -7.5l-2 -14q-9 15 -26 23t-39 8q-36 0 -67 -19.5t-49.5 -54.5t-18.5 -79q0 -46 24.5 -74t68.5 -28q22 0 44 12t36 31
q3 -22 20 -31q13 -7 39 -7q72 0 113 42q39 40 39 105zM230 119q-21 0 -33 13.5t-12 38.5q0 27 11 49q11 21 28 32.5t35 11.5q22 0 34 -14t12 -37q0 -37 -22.5 -65.5t-52.5 -28.5z" />
    <glyph glyph-name="toggle-off" unicode="&#xf204;" horiz-adv-x="576" 
d="M384 384h-192q-52 0 -96 -26t-70 -70t-26 -96t26 -96t70 -70t96 -26h192q52 0 96 26t70 70t26 96t-26 96t-70 70t-96 26zM48 192q0 39 19.5 72t52.5 52.5t72 19.5t72 -19.5t52.5 -52.5t19.5 -72t-19.5 -72t-52.5 -52.5t-72 -19.5t-72 19.5t-52.5 52.5t-19.5 72zM384 48
h-65q43 38 58 91t0 106t-58 91h65q39 0 72 -19.5t52.5 -52.5t19.5 -72t-19.5 -72t-52.5 -52.5t-72 -19.5z" />
    <glyph glyph-name="toggle-on" unicode="&#xf205;" horiz-adv-x="576" 
d="M576 192q0 -52 -26 -96t-70 -70t-96 -26h-192q-52 0 -96 26t-70 70t-26 96t26 96t70 70t96 26h192q52 0 96 -26t70 -70t26 -96zM384 336q-39 0 -72 -19.5t-52.5 -52.5t-19.5 -72t19.5 -72t52.5 -52.5t72 -19.5t72 19.5t52.5 52.5t19.5 72t-19.5 72t-52.5 52.5t-72 19.5z
" />
    <glyph glyph-name="bicycle" unicode="&#xf206;" horiz-adv-x="640" 
d="M514 256q-26 0 -50 -9l-79 128q-6 9 -17 9h-68q-5 0 -8.5 -3.5t-3.5 -8.5v-16q0 -5 3.5 -8.5t8.5 -3.5h57l32 -52h-133v16q0 5 -3.5 8.5t-8.5 3.5h-96q-8 0 -14 -6t-6 -14t6 -14t14 -6h61l-25 -37q-27 13 -56 13q-35 0 -64.5 -17.5t-46.5 -47t-17 -64t17.5 -64
t46.5 -46.5t64 -17q43 0 77 26t46 66h33q10 0 16 9l110 157l20 -32q-22 -18 -34 -43.5t-12 -54.5q0 -34 17.5 -63.5t46.5 -47t63.5 -17.5t64.5 17t47 47t17 64.5t-17 63.5t-46 46t-63 18zM128 40q-36 0 -62 26t-26 62t26 62t62 26q17 0 32 -6l-60 -87q-7 -9 -1.5 -20
t17.5 -11h92q-10 -23 -32 -37.5t-48 -14.5zM154 132l39 55q21 -23 23 -55h-62zM274 132h-18q-1 26 -11.5 48.5t-28.5 40.5l22 31h120zM508 40q-34 2 -58.5 26.5t-25.5 58.5q-1 19 6.5 36.5t20.5 30.5l48 -77q3 -5 8 -6t9 2l13 8q5 3 6 8t-2 9l-47 76q14 4 28 4
q35 -1 59.5 -25.5t26.5 -58.5q1 -25 -11 -47t-34 -34t-47 -11z" />
    <glyph glyph-name="bus" unicode="&#xf207;" 
d="M368 80q13 0 22.5 9.5t9.5 22.5t-9.5 22.5t-22.5 9.5t-22.5 -9.5t-9.5 -22.5t9.5 -22.5t22.5 -9.5zM144 80q13 0 22.5 9.5t9.5 22.5t-9.5 22.5t-22.5 9.5t-22.5 -9.5t-9.5 -22.5t9.5 -22.5t22.5 -9.5zM488 320h-8v48q0 22 -30 40.5t-81.5 29t-112.5 10.5t-112.5 -10.5
t-81.5 -29t-30 -40.5v-48h-8q-10 0 -17 -7t-7 -17v-80q0 -10 7 -17t17 -7h8v-160q0 -13 9.5 -22.5t22.5 -9.5v-32q0 -13 9.5 -22.5t22.5 -9.5h16q13 0 22.5 9.5t9.5 22.5v32h224v-32q0 -13 9.5 -22.5t22.5 -9.5h16q13 0 22.5 9.5t9.5 22.5v32q13 0 22.5 9.5t9.5 22.5v160h8
q10 0 17 7t7 17v80q0 10 -7 17t-17 7zM432 48h-352v128h352v-128zM432 224h-352v64h352v-64zM432 336h-352v27q13 13 56 23q53 14 120 14t120 -14q43 -10 56 -23v-27z" />
    <glyph glyph-name="closed-captioning" unicode="&#xf20a;" 
d="M464 384h-416q-20 0 -34 -14t-14 -34v-288q0 -20 14 -34t34 -14h416q20 0 34 14t14 34v288q0 20 -14 34t-34 14zM458 48h-404q-2 0 -4 2t-2 4v276q0 2 2 4t4 2h404q2 0 4 -2t2 -4v-276q0 -2 -2 -4t-4 -2zM247 134q3 -4 -1 -8q-19 -21 -48.5 -27.5t-58 2.5t-46.5 32
q-19 25 -19 61q0 46 33 72q30 24 72 23.5t67 -25.5q3 -3 1 -6l-17 -30q-2 -3 -4.5 -3.5t-4.5 1.5q-20 16 -42.5 16.5t-37.5 -12.5t-15 -36t14.5 -37.5t36 -13.5t41.5 19q2 2 5 2t4 -3zM437 134q3 -4 0 -8q-20 -21 -49.5 -27.5t-58 2.5t-46.5 32q-19 25 -19 61q0 46 33 72
q30 24 72 23.5t68 -25.5q2 -3 0 -6l-17 -30q-1 -3 -4 -3.5t-5 1.5q-20 16 -42.5 16.5t-37.5 -12.5t-15 -36t14.5 -37.5t36.5 -13.5t42 19q2 2 4.5 2t4.5 -3z" />
    <glyph glyph-name="shekel-sign" unicode="&#xf20b;" horiz-adv-x="384" 
d="M216 288v-192q0 -7 4.5 -11.5t11.5 -4.5h32q7 0 11.5 4.5t4.5 11.5v192q0 35 -17 64.5t-46.5 46.5t-64.5 17h-128q-10 0 -17 -7t-7 -17v-408q0 -7 4.5 -11.5t11.5 -4.5h32q7 0 11.5 4.5t4.5 11.5v368h88q27 0 45.5 -18.5t18.5 -45.5zM368 416h-32q-7 0 -11.5 -4.5
t-4.5 -11.5v-304q0 -27 -18.5 -45.5t-45.5 -18.5h-88v256q0 7 -4.5 11.5t-11.5 4.5h-32q-7 0 -11.5 -4.5t-4.5 -11.5v-296q0 -10 7 -17t17 -7h128q35 0 64.5 17t46.5 46.5t17 64.5v304q0 7 -4.5 11.5t-11.5 4.5z" />
    <glyph glyph-name="cart-plus" unicode="&#xf217;" horiz-adv-x="576" 
d="M552 384h-408l-8 45q-2 8 -8.5 13.5t-15.5 5.5h-100q-5 0 -8.5 -3.5t-3.5 -8.5v-24q0 -5 3.5 -8.5t8.5 -3.5h80l70 -356q-18 -18 -18 -44.5t18.5 -45t45.5 -18.5t45.5 18.5t18.5 45.5q0 17 -9 32h146q-9 -15 -9 -32q0 -27 18.5 -45.5t45.5 -18.5t45.5 18.5t18.5 45.5
t-20 46l1 5q3 11 -4.5 20t-18.5 9h-282l-10 48h313q8 0 14.5 5.5t8.5 13.5l45 208q3 11 -4.5 20t-18.5 9zM464 24q10 0 17 -7t7 -17t-7 -17t-17 -7t-17 7t-7 17t7 17t17 7zM208 24q10 0 17 -7t7 -17t-7 -17t-17 -7t-17 7t-7 17t7 17t17 7zM487 176h-302l-31 160h368z
M272 248v16q0 5 3.5 8.5t8.5 3.5h32v32q0 5 3.5 8.5t8.5 3.5h16q5 0 8.5 -3.5t3.5 -8.5v-32h32q5 0 8.5 -3.5t3.5 -8.5v-16q0 -5 -3.5 -8.5t-8.5 -3.5h-32v-32q0 -5 -3.5 -8.5t-8.5 -3.5h-16q-5 0 -8.5 3.5t-3.5 8.5v32h-32q-5 0 -8.5 3.5t-3.5 8.5z" />
    <glyph glyph-name="cart-arrow-down" unicode="&#xf218;" horiz-adv-x="576" 
d="M552 384h-408l-8 45q-2 8 -8.5 13.5t-15.5 5.5h-100q-5 0 -8.5 -3.5t-3.5 -8.5v-24q0 -5 3.5 -8.5t8.5 -3.5h80l70 -356q-18 -18 -18 -44.5t18.5 -45t45.5 -18.5t45.5 18.5t18.5 45.5q0 17 -9 32h146q-9 -15 -9 -32q0 -27 18.5 -45.5t45.5 -18.5t45.5 18.5t18.5 45.5
t-20 46l1 5q3 11 -4.5 20t-18.5 9h-282l-10 48h313q8 0 14.5 5.5t8.5 13.5l45 208q3 11 -4.5 20t-18.5 9zM208 -24q-10 0 -17 7t-7 17t7 17t17 7t17 -7t7 -17t-7 -17t-17 -7zM464 -24q-10 0 -17 7t-7 17t7 17t17 7t17 -7t7 -17t-7 -17t-17 -7zM487 176h-302l-31 160h368z
M396 236l-52 -52q-3 -3 -8 -3t-8 3l-52 52q-5 5 -2 12.5t11 7.5h27v52q0 5 3.5 8.5t8.5 3.5h24q5 0 8.5 -3.5t3.5 -8.5v-52h27q8 0 11 -7.5t-2 -12.5z" />
    <glyph glyph-name="diamond" unicode="&#xf219;" horiz-adv-x="448" 
d="M190 -48l-179 210q-11 13 -11 30t11 30l179 210q13 16 34 16t34 -16l179 -210q11 -13 11 -30t-11 -30l-178 -210q-14 -16 -35 -16t-34 16zM48 192l176 -206l176 206l-176 207z" />
    <glyph glyph-name="ship" unicode="&#xf21a;" horiz-adv-x="640" 
d="M485 69l74 62q14 12 16.5 29t-6 32t-25.5 21l-56 20v127q0 10 -7 17t-17 7h-48v40q0 10 -7 17t-17 7h-144q-10 0 -17 -7t-7 -17v-40h-48q-10 0 -17 -7t-7 -17v-127l-56 -20q-17 -6 -25.5 -21t-6 -32t16.5 -29l74 -62q-18 -40 -53 -62q-37 -23 -90 -23q-5 0 -8.5 -3.5
t-3.5 -8.5v-24q0 -5 3.5 -8.5t8.5 -3.5q49 0 86 15q40 16 71 51q5 -28 27.5 -47t51.5 -19h144q29 0 51.5 19t27.5 47q31 -35 72 -51q36 -15 85 -15q5 0 8.5 3.5t3.5 8.5v24q0 5 -3.5 8.5t-8.5 3.5q-53 0 -90 23q-35 21 -53 62zM264 408h112v-24h-112v24zM200 336h240v-87
l-104 36q-16 6 -32 0l-104 -36v87zM424 16q0 -13 -9.5 -22.5t-22.5 -9.5h-144q-13 0 -22.5 9.5t-9.5 22.5v64l-104 88l208 72l208 -72l-104 -88v-64z" />
    <glyph glyph-name="user-secret" unicode="&#xf21b;" horiz-adv-x="448" 
d="M384 140l24 62q3 8 -2 15t-13 7h-34q9 25 9 48q0 8 -2 19q50 13 50 29q0 10 -18.5 18.5t-51.5 14.5q-7 23 -19 47q-11 22 -21 35t-26 13q-7 0 -14 -3l-13 -7q-14 -7 -18.5 -8.5t-10.5 -1.5t-10.5 1.5t-18.5 8.5l-13 7q-7 3 -14 3q-16 0 -26 -13t-21 -35q-12 -24 -19 -47
q-33 -6 -51.5 -14.5t-18.5 -18.5q0 -16 50 -29q-2 -10 -2 -19q0 -23 9 -48h-33q-8 0 -13 -7t-1 -15l25 -60q-30 -18 -48.5 -49t-18.5 -67v-45q0 -19 13 -32t32 -13h358q19 0 32 13t13 32v45q0 35 -17.5 65.5t-46.5 48.5zM173 396q2 -1 5 -3q14 -7 21 -9q12 -5 25 -4.5
t25 4.5q7 2 21 9l5 3q17 -28 27 -64l1 -3q-36 -4 -78.5 -4t-79.5 4l1 3q10 36 27 63v1zM128 272v0q6 -3 6 -6l2 -4q6 -21 15 -29q6 -5 16 -8q14 -3 25 3q15 7 23 30q2 6 9 6t9 -6q7 -21 22 -30q11 -6 25 -3q11 2 17 8q9 8 15 30l2 3q0 3 6 6v0q0 -40 -28 -68t-68 -28t-68 28
t-28 68v0zM48 26q0 23 11.5 42.5t32.5 31.5l36 21l-23 55h12q26 -29 64 -41l27 -47l-24 -104h-136v42zM400 -16h-135l-25 104l27 47q37 12 64 41h15l-21 -56l34 -21q19 -12 30 -31.5t11 -41.5v-42z" />
    <glyph glyph-name="motorcycle" unicode="&#xf21c;" horiz-adv-x="640" 
d="M512 256q-23 0 -44 -8l-33 56h85q10 0 17 7t7 17v32q0 10 -7 17t-17 7h-45q-11 0 -18 -8l-39 -43l-25 41q-6 10 -17 10h-76q-5 0 -8.5 -3.5t-3.5 -8.5v-16q0 -5 3.5 -8.5t8.5 -3.5h65l30 -52h-176q-6 7 -13 12q-28 20 -78 20h-56q-8 0 -14 -6t-6 -14t6 -14t14 -6h56
q30 0 49 -20l-8 -15q-20 7 -41 7q-35 0 -64.5 -17t-46.5 -46.5t-17 -64.5t17 -64.5t46.5 -46.5t64.5 -17q43 0 77 26t46 66h81q9 0 15 6t5 15q-2 41 16.5 77t52.5 59l12 -20q-23 -18 -36 -44.5t-13 -56.5q0 -35 17 -64.5t46.5 -46.5t64.5 -17t64.5 17t46.5 46.5t17 64.5
t-17 64.5t-46.5 46.5t-64.5 17zM128 40q-36 0 -62 26t-26 62t26 62t62 26q11 0 21 -3l-51 -91q-5 -10 1 -20t17 -10h92q-10 -23 -32 -37.5t-48 -14.5zM312 132h-162l66 120h147q-23 -25 -36 -56t-15 -64zM512 40q-36 0 -62 26t-26 62q0 19 8 36t21 30l54 -91q2 -4 7 -5.5
t9 1.5l14 8q4 2 5.5 7t-1.5 9l-53 90q12 3 24 3q36 0 62 -26t26 -62t-26 -62t-62 -26z" />
    <glyph glyph-name="street-view" unicode="&#xf21d;" 
d="M168 109v-45q0 -23 16.5 -39.5t39.5 -16.5h64q23 0 39.5 16.5t16.5 39.5v45q14 7 23 21t9 30v72q0 21 -11.5 38.5t-30.5 26.5q18 25 18 55q0 40 -28 68t-68 28t-68 -28t-28 -68q0 -30 18 -55q-19 -9 -30.5 -26.5t-11.5 -38.5v-72q0 -16 9 -30t23 -21zM256 400
q20 0 34 -14t14 -34t-14 -34t-34 -14t-34 14t-14 34t14 34t34 14zM184 232q0 10 7 17t17 7h96q10 0 17 -7t7 -17v-72q0 -3 -2.5 -5.5t-5.5 -2.5h-24v-88q0 -3 -2.5 -5.5t-5.5 -2.5h-64q-3 0 -5.5 2.5t-2.5 5.5v88h-24q-3 0 -5.5 2.5t-2.5 5.5v72zM394 113q-9 -13 -18 -21
v-14q41 -8 64.5 -20t23.5 -26.5t-28 -27.5t-75.5 -20.5t-104.5 -7.5t-104.5 7.5t-75.5 20.5t-28 27.5t23.5 26.5t64.5 20v14q-9 8 -18 21q-54 -13 -86 -34.5t-32 -47t34.5 -47.5t93 -35t128.5 -13t128.5 13t93 35t34.5 47.5t-32 47t-86 34.5z" />
    <glyph glyph-name="heartbeat" unicode="&#xf21e;" 
d="M266 20q-4 -4 -10 -4t-10 4l-109 108h-68l143 -142q18 -18 44 -18t44 18l144 142h-69zM355 416q-56 0 -99 -35q-43 35 -99 35q-37 0 -72 -18q-38 -20 -60 -54q-25 -37 -25 -84q0 -56 38 -100h117l30 72l56 -127q5 -9 15 -9t14 9l50 99l22 -44h132q38 44 38 100
q0 47 -25 84q-22 34 -60 54q-35 18 -72 18zM439 192h-77l-28 55q-4 9 -14 9t-14 -9l-49 -98l-58 130q-5 9 -15.5 9t-14.5 -10l-36 -86h-60q-28 34 -24 77q3 40 33.5 69.5t74.5 29.5q25 0 43 -9q22 -11 56 -44q25 24 41 35.5t30 14.5q11 3 28 3q44 0 74.5 -29.5t33.5 -69.5
q4 -43 -24 -77z" />
    <glyph glyph-name="venus" unicode="&#xf221;" horiz-adv-x="288" 
d="M288 272q0 39 -19.5 72t-52.5 52.5t-72 19.5t-72 -19.5t-52.5 -52.5t-19.5 -72q0 -53 34.5 -93t85.5 -49v-58h-44q-5 0 -8.5 -3.5t-3.5 -8.5v-24q0 -5 3.5 -8.5t8.5 -3.5h44v-44q0 -5 3.5 -8.5t8.5 -3.5h24q5 0 8.5 3.5t3.5 8.5v44h44q5 0 8.5 3.5t3.5 8.5v24
q0 5 -3.5 8.5t-8.5 3.5h-44v58q51 9 85.5 49t34.5 93zM48 272q0 40 28 68t68 28t68 -28t28 -68t-28 -68t-68 -28t-68 28t-28 68z" />
    <glyph glyph-name="mars" unicode="&#xf222;" horiz-adv-x="384" 
d="M372 384h-63q-8 0 -11 -7.5t2 -12.5l15 -15l-88 -88q-37 27 -83 27q-39 0 -72 -19.5t-52.5 -52.5t-19.5 -72t19.5 -72t52.5 -52.5t72 -19.5t72 19.5t52.5 52.5t19.5 72q0 46 -27 83l88 88l15 -14q5 -6 12.5 -3t7.5 11v63q0 5 -3.5 8.5t-8.5 3.5zM144 48q-40 0 -68 28
t-28 68t28 68t68 28t68 -28t28 -68t-28 -68t-68 -28z" />
    <glyph glyph-name="mercury" unicode="&#xf223;" horiz-adv-x="288" 
d="M288 240q0 37 -17.5 69t-47.5 51q4 3 9 8q32 27 38 66q0 6 -3.5 10t-8.5 4h-24q-5 0 -8 -2.5t-4 -7.5q-5 -23 -27 -38.5t-51 -15.5t-51 15.5t-27 38.5q-1 5 -4 7.5t-7 2.5h-25q-5 0 -9 -4t-3 -10q6 -39 38 -66l9 -8q-30 -19 -47.5 -51t-17.5 -69q0 -53 34.5 -93.5
t86.5 -48.5q-1 -2 -1 -4v-54h-44q-5 0 -8.5 -3.5t-3.5 -8.5v-24q0 -5 3.5 -8.5t8.5 -3.5h44v-44q0 -5 3.5 -8.5t8.5 -3.5h24q5 0 8.5 3.5t3.5 8.5v44h44q5 0 8.5 3.5t3.5 8.5v24q0 5 -3.5 8.5t-8.5 3.5h-44v54q0 2 -1 4q52 8 86.5 48.5t34.5 93.5zM144 144q-40 0 -68 28
t-28 68t28 68t68 28t68 -28t28 -68t-28 -68t-68 -28z" />
    <glyph glyph-name="transgender" unicode="&#xf224;" horiz-adv-x="384" 
d="M372 448h-63q-8 0 -11 -7.5t2 -12.5l15 -15l-88 -88q-37 27 -83 27q-39 0 -72 -19.5t-52.5 -52.5t-19.5 -72q0 -53 34.5 -93t85.5 -49v-34h-44q-5 0 -8.5 -3.5t-3.5 -8.5v-24q0 -5 3.5 -8.5t8.5 -3.5h44v-36q0 -5 3.5 -8.5t8.5 -3.5h24q5 0 8.5 3.5t3.5 8.5v36h44
q5 0 8.5 3.5t3.5 8.5v24q0 5 -3.5 8.5t-8.5 3.5h-44v34q51 9 85.5 49t34.5 93q0 46 -27 83l88 88l15 -14q5 -6 12.5 -3t7.5 11v63q0 5 -3.5 8.5t-8.5 3.5zM144 112q-40 0 -68 28t-28 68t28 68t68 28t68 -28t28 -68t-28 -68t-68 -28z" />
    <glyph glyph-name="transgender-alt" unicode="&#xf225;" horiz-adv-x="480" 
d="M468 448h-63q-8 0 -11 -7.5t2 -12.5l15 -15l-88 -88q-37 27 -83 27t-83 -27l-26 26l19 20q4 3 4 8t-4 9l-17 17q-4 3 -8.5 3t-8.5 -3l-19 -20l-28 28l15 15q5 5 2 12.5t-11 7.5h-63q-5 0 -8.5 -3.5t-3.5 -8.5v-63q0 -8 7.5 -11t13.5 2l14 15l28 -28l-20 -19
q-3 -4 -3 -8.5t3 -8.5l17 -17q4 -4 9 -4t8 4l20 20l26 -26q-27 -38 -27 -84q0 -53 34.5 -93t85.5 -49v-34h-44q-5 0 -8.5 -3.5t-3.5 -8.5v-24q0 -5 3.5 -8.5t8.5 -3.5h44v-36q0 -5 3.5 -8.5t8.5 -3.5h24q5 0 8.5 3.5t3.5 8.5v36h44q5 0 8.5 3.5t3.5 8.5v24q0 5 -3.5 8.5
t-8.5 3.5h-44v34q51 9 85.5 49t34.5 93q0 46 -27 83l88 88l15 -14q5 -6 12.5 -3t7.5 11v63q0 5 -3.5 8.5t-8.5 3.5zM240 112q-40 0 -68 28t-28 68t28 68t68 28t68 -28t28 -68t-28 -68t-68 -28z" />
    <glyph glyph-name="venus-double" unicode="&#xf226;" 
d="M288 272q0 39 -19.5 72t-52.5 52.5t-72 19.5t-72 -19.5t-52.5 -52.5t-19.5 -72q0 -53 34.5 -93t85.5 -49v-58h-44q-5 0 -8.5 -3.5t-3.5 -8.5v-24q0 -5 3.5 -8.5t8.5 -3.5h44v-44q0 -5 3.5 -8.5t8.5 -3.5h24q5 0 8.5 3.5t3.5 8.5v44h44q5 0 8.5 3.5t3.5 8.5v24
q0 5 -3.5 8.5t-8.5 3.5h-44v58q51 9 85.5 49t34.5 93zM48 272q0 40 28 68t68 28t68 -28t28 -68t-28 -68t-68 -28t-68 28t-28 68zM392 130v-58h44q5 0 8.5 -3.5t3.5 -8.5v-24q0 -5 -3.5 -8.5t-8.5 -3.5h-44v-44q0 -5 -3.5 -8.5t-8.5 -3.5h-24q-5 0 -8.5 3.5t-3.5 8.5v44h-44
q-5 0 -8.5 3.5t-3.5 8.5v24q0 5 3.5 8.5t8.5 3.5h44v58q-36 6 -65 29q16 19 26 41q27 -24 63 -24q40 0 68 28t28 68t-28 68t-68 28q-36 0 -63 -24q-10 22 -26 41q39 31 89 31q39 0 72 -19.5t52.5 -52.5t19.5 -72q0 -53 -34.5 -93t-85.5 -49z" />
    <glyph glyph-name="mars-double" unicode="&#xf227;" 
d="M288 240q0 46 -27 83l56 56l15 -14q5 -6 12.5 -3t7.5 11v63q0 5 -3.5 8.5t-8.5 3.5h-63q-8 0 -11 -7.5t2 -12.5l15 -15l-56 -56q-37 27 -83 27q-39 0 -72 -19.5t-52.5 -52.5t-19.5 -72t19.5 -72t52.5 -52.5t72 -19.5t72 19.5t52.5 52.5t19.5 72zM144 144q-40 0 -68 28
t-28 68t28 68t68 28t68 -28t28 -68t-28 -68t-68 -28zM512 276v-63q0 -8 -7.5 -11t-12.5 2l-15 15l-56 -56q27 -37 27 -83q0 -39 -19.5 -72t-52.5 -52.5t-72 -19.5q-37 0 -68 17t-51 46.5t-24 65.5q24 2 47 11q2 -38 29.5 -65t67 -27t67.5 28t28 67.5t-27 67t-65 29.5
q9 23 11 47q38 -4 68 -26l56 56l-14 15q-6 5 -3 12.5t11 7.5h63q5 0 8.5 -3.5t3.5 -8.5z" />
    </font>
</defs>
</svg>
